Эмпайр Стэйт / Empire State (Дито Монтиель / Dito Montiel) [2013 г., криминал, драма, BDRip] MVO (Лицензия) «ВС трейд»

 

Создавать темы 17-Мар-2014 15:44

-Эмпайр Стэйт / Empire State--«Based on a true story» Производство: США 24P Media Group, Emmett/Furla Films, Envision Entertainment, Grosvenor Park Media, Kind Hearts Entertainment, Swift Street Productions
Год выпуска: 2013 г.
Жанр: криминал, драма
Продолжительность: 01:34:20
Мировая премьера: 19 марта 2013,
Дата выхода DVD: 11 марта 2014, «ВС трейд»
Перевод: Профессиональный (многоголосый, закадровый) [Лицензия]
Режиссер: Дито Монтиель / Dito Montiel-В ролях: Лиам Хемсворт, Майкл Ангарано, Дуэйн Джонсон, Эмма Робертс, Никки Рид, Шеней Граймс, Джерри Феррара, Крис Диамантополос, Джеймс Рэнсон, Джина Мантенья-Описание: В этом триллере, основанном на реальных событиях, речь пойдет о произошедшем в 1982 году в Нью-Йорке ограблении инкассаторских бронеавтомобилей, которое на тот момент считалось крупнейшим в США.-Качество видео: BDRip [рип с BDRemux 1080p]
Контейнер: AVI
Видео кодек: XviD
Аудио кодек: AC3
Видео: 720x304 (2.35:1), 23.976 fps, XviD ~ 1754 kbps avg, 0.334 bit/pixel
Аудио: Rus: 48 kHz, Dolby AC3, 6 ch, 448 kbps MVO (Лицензия)
Cубтитры: отсутствуют

Media Info

Общее
Полное имя : W:\Empair.Steyt.2012.P.BDRip.Empair.Steyt.2012.P.BDRip.avi
Формат : AVI
Формат/Информация : Audio Video Interleave
Размер файла : 1,46 Гбайт
Продолжительность : 1 ч. 34 м.
Общий поток : 2211 Кбит/сек
Программа кодирования : VirtualDubModRus 1.5.10.2 (build 2542/release)
Библиотека кодирования : VirtualDubMod build 2542/release
Видео
Идентификатор : 0
Формат : MPEG-4 Visual
Профиль формата : Advanced [email protected]
Параметр BVOP формата : 1
Параметр QPel формата : Нет
Параметр GMC формата : Без точки перехода
Параметр матрицы формата : Выборочная
Идентификатор кодека : XVID
Идентификатор кодека/Подсказка : XviD
Продолжительность : 1 ч. 34 м.
Битрейт : 1754 Кбит/сек
Ширина : 720 пикс.
Высота : 304 пикс.
Соотношение сторон : 2,35:1
Частота кадров : 23,976 кадр/сек
Цветовое пространство : YUV
Подвыборка цветности : 4:2:0
Битовая глубина : 8 бит
Тип развёртки : Прогрессивная
Метод сжатия : С потерями
Бит/(Пиксели*Кадры) : 0.334
Размер потока : 1,16 Гбайт (79%)
Библиотека кодирования : XviD 73
Аудио
Идентификатор : 1
Формат : AC-3
Формат/Информация : Audio Coding 3
Расширение режима : CM (complete main)
Идентификатор кодека : 2000
Продолжительность : 1 ч. 34 м.
Вид битрейта : Постоянный
Битрейт : 448 Кбит/сек
Канал(ы) : 6 канала(ов)
Расположение каналов : Front: L C R, Side: L R, LFE
Частота : 48,0 КГц
Битовая глубина : 16 бит
Метод сжатия : С потерями
Размер потока : 302 Мбайт (20%)
Выравнивание : Разделение по промежуткам
Продолжительность промежутка : 42 мс. (1,00 видеокадр)
Время предзагрузки промежутка : 500 ms

Скриншоты

Яндекс.Метрика
Рейтинг@Mail.ru