Невероятные приключения янки в Африке / Yankee Zulu (There's a Zulu On My Stoep) (Грей Хофмайр / Gray Hofmeyr) [1993 г., комедия, DVDRip] MVO

 

Создавать темы 15-Мар-2014 04:38

-Невероятные приключения янки в Африке / Yankee Zulu (There's a Zulu On My Stoep)-- Производство: ЮАР
Год выпуска: 1993 г.
Жанр: комедия
Продолжительность: 1:26:01
Мировая премьера: 30 декабря 1993
Перевод: Профессиональный (многоголосый, закадровый)
Режиссер: Грей Хофмайр / Gray Hofmeyr-В ролях: Леон Шустер, Джон Матшикиза, Уилсон Данстер, Терри Триз, Мишель Боуc-Описание: Шалости друзей-мальчишек, белого африканера и черного зулу, сделали бы честь даже легендарному Кевину из комедии «Один дома».
Жизнь надолго разлучает их, но, встретившись через 25 лет, они вспоминают детство: похищают пол-миллиона долларов и, преобразившись в гримерной телевидения, скрываются от преследователей. В этом им помогают дети, среди которых... наследник престола Объединённого королевства Великобритании и Северной Ирландии.-Качество видео: DVDRip
Формат видео: AVI
Видео кодек: XviD
Аудио кодек: MP3
Видео: 544х416p, 1065 kbps , 25 fps, 0.188 bit/pixel
Аудио: 128 kbps, 2 ch, 48 kHz
Cубтитры: отсутствуют

Media Info

General
Format : AVI
Format/Info : Audio Video Interleave
File size : 740 MiB
Duration : 1h 26mn
Overall bit rate : 1 203 Kbps
Movie name : Yankee Zulu, 1983
Genre : Comedy
Writing application : VirtualDubMod 1.5.10.2 (build 2540/release)
Original source form/Name : Movie
Video #0
ID : 0
Format : MPEG-4 Visual
Format profile : Advanced [email protected]
Format settings, BVOP : 2
Format settings, QPel : No
Format settings, GMC : No warppoints
Format settings, Matrix : Custom
Muxing mode : Packed bitstream
Codec ID : XVID
Codec ID/Hint : XviD
Duration : 1h 26mn
Bit rate : 1 065 Kbps
Width : 544 pixels
Height : 416 pixels
Display aspect ratio : 4:3
Frame rate : 25.000 fps
Color space : YUV
Chroma subsampling : 4:2:0
Bit depth : 8 bits
Scan type : Progressive
Compression mode : Lossy
Bits/(Pixel*Frame) : 0.188
Stream size : 655 MiB (89%)
Writing library : XviD 1.2.1 (UTC 2008-12-04)
Audio #1
ID : 1
Format : MPEG Audio
Format version : Version 1
Format profile : Layer 3
Mode : Joint stereo
Mode extension : MS Stereo
Codec ID : 55
Codec ID/Hint : MP3
Duration : 1h 26mn
Bit rate mode : Constant
Bit rate : 128 Kbps
Channel(s) : 2 channels
Sampling rate : 48.0 KHz
Compression mode : Lossy
Stream size : 78.8 MiB (11%)
Alignment : Aligned on interleaves
Interleave, duration : 40 ms (1.00 video frame)
Interleave, preload duration : 504 ms
Writing library : LAME3.98r
Encoding settings : -m j -V 4 -q 2 -lowpass 17 -b 128

Скриншоты

Доп. информация

Странно, но данный фильм не получил широкой известности в России.
Несмотря на то, что в качестве страны-производителя фильма выступает ЮАР, эта комедия достойна далеко не последнего места в коллекции любителей жанра (лидерство в нём, бесспорно, у США).
В самом деле, "Один дома" местами "отдыхает".
Яндекс.Метрика
Рейтинг@Mail.ru