[ Сегодня на трекере фрилич! Идет свободное скачивание без начисления Download ]

Босиком / Barefoot (Эндрю Флеминг / Andrew Fleming) [2014 г., драма, мелодрама, комедия, WEB-DL] VO (datynet) + original (Eng)

 

Создавать темы 15-Мар-2014 04:26

-Босиком / Barefoot- Производство: США
Год выпуска: 2014 г.
Жанр: драма, мелодрама, комедия
Продолжительность: 01:29:32
Мировая премьера: 2 февраля 2014
Перевод: Любительский (одноголосый, закадровый) [datynet]
Оригинальный аудиопоток: английский-Режиссер: Эндрю Флеминг / Andrew Fleming
В ролях: Эван Рэйчел Вуд, Скотт Спидман, Трит Уильямс, Кейт Бёртон, Дж.К. Симмонс, Дж. Омар Кастро, Дэвид Дженсен, Жаклин Флеминг, Эшли Борман, Рики Уэйн-Описание:-Сын богатой семьи встречает молодую девушку, которая всю жизнь была изолирована от общества. Он берет наивную девушку с собой на свадьбу своего брата, чтобы убедить свою семью, что его жизнь наконец-то наладилась…-Качество видео: WEB-DL
Контейнер: AVI
Видео кодек: XviD
Аудио кодек: MP3
Видео: AVI, XviD, 720x304, 1657 Кбит/сек, 23,976 кадров/сек, 0.316 Бит/Пиксели
Аудио: Русский; MP3, 192 Кбит/сек, 2 каналов, 44,1 КГц
Аудио #2: Английский; AC3, 320 Кбит/сек, 6 каналов, 48,0 КГц
Cубтитры: отсутствуют

Media Info

Общее
Полное имя : C:\Users\Admin\Desktop\Barefoot.2014.L1.WEBDLRip.avi
Формат : AVI
Формат/Информация : Audio Video Interleave
Размер файла : 1,37 Гбайт
Продолжительность : 1 ч. 29 м.
Общий поток : 2183 Кбит/сек
Программа кодирования : VirtualDubMod 1.5.10.3 | www.virtualdub-fr.org || (build 2550/release)
Библиотека кодирования : VirtualDubMod build 2550/release
Видео
Идентификатор : 0
Формат : MPEG-4 Visual
Профиль формата : Advanced [email protected]
Параметр BVOP формата : 1
Параметр QPel формата : Нет
Параметр GMC формата : Без точки перехода
Параметр матрицы формата : Default (H.263)
Идентификатор кодека : XVID
Идентификатор кодека/Подсказка : XviD
Продолжительность : 1 ч. 29 м.
Битрейт : 1657 Кбит/сек
Ширина : 720 пикселей
Высота : 304 пикселя
Соотношение сторон : 2,35:1
Частота кадров : 23,976 кадра/сек
Цветовое пространство : YUV
Субдискретизация насыщенности : 4:2:0
Битовая глубина : 8 бит
Тип развёртки : Прогрессивная
Метод сжатия : С потерями
Бит/(Пиксели*Кадры) : 0.316
Размер потока : 1,04 Гбайт (76%)
Библиотека кодирования : XviD 73
Аудио #1
Идентификатор : 1
Формат : MPEG Audio
Версия формата : Version 1
Профиль формата : Layer 3
Идентификатор кодека : 55
Идентификатор кодека/Подсказка : MP3
Продолжительность : 1 ч. 29 м.
Вид битрейта : Постоянный
Битрейт : 192 Кбит/сек
Каналы : 2 канала
Частота : 44,1 КГц
Метод сжатия : С потерями
Размер потока : 123 Мбайт (9%)
Выравнивание : Разделение по промежуткам
Продолжительность промежутка : 42 мс. (1,00 видеокадр)
Время предзагрузки промежутка : 500 мс.
Аудио #2
Идентификатор : 2
Формат : AC-3
Формат/Информация : Audio Coding 3
Расширение режима : CM (complete main)
Параметр Endianness формата : Big
Идентификатор кодека : 2000
Продолжительность : 1 ч. 29 м.
Вид битрейта : Постоянный
Битрейт : 320 Кбит/сек
Каналы : 6 каналов
Расположение каналов : Front: L C R, Side: L R, LFE
Частота : 48,0 КГц
Битовая глубина : 16 бит
Метод сжатия : С потерями
Размер потока : 205 Мбайт (15%)
Выравнивание : Разделение по промежуткам
Продолжительность промежутка : 42 мс. (1,00 видеокадр)
Время предзагрузки промежутка : 500 мс.

Скриншоты

Яндекс.Метрика
Рейтинг@Mail.ru