[ Сегодня на трекере фрилич! Идет свободное скачивание без начисления Download ]

Гетеры майора Соколова (Бахтияр Худойназаров) [драма, шпионский, 2014] (SATRip) [серии 1-8 из 8]

 

Создавать темы 14-Мар-2014 09:07

Гетеры майора Соколова [серии 1-8 из 8]- страна: Россия
Год выпуска: 2014
Жанр: драма, шпионский
Дата премьеры: 10 марта 2014
Показ: по две серии на канале "Интер" с 23:оо по 01:оо МСК 10-13 марта.
Режиссер: Бахтияр Худойназаров
Актеры: Андрей Панин, Сергей Гармаш, Артур Смольянинов, Филипп Янковский, Татьяна Лютаева, Дарья Мельникова, Аглая Тарасова, Мария Антонова (II), Анастасия Микульчина, Алиса Горшкова, Оксана Базилевич, Юлиана Ромашина (Оррен), Анатолий Гущин, Олег Флеер, Сергей Тэсслер (VII), Дмитрий Поднозов, Олег Тилькин
Описание фильма:
Сентябрь 1939 года. Начало Второй Мировой войны. В Крым приезжает майор советской разведки Соколов. Его главная цель – выявить агентурную сеть террористической антисоветской организации РОВС. Руководит контрразведкой Русского общевоинского союза - штабс-капитан Семенов, псевдоним Крест. Крест и Соколов – давние враги. Белые офицеры, в 1917 году они оказались по разные стороны баррикад. Они прекрасно знают друг друга в лицо, хотели бы и не один раз могли бы убить друг друга, но каждому из них нужна гибель системы, которую представляет противник. Оба – азартные игроки - они начинают сложную партию, в которой шансы на победу почти равны. Каждый из них готов жертвовать любыми фигурами, включая себя, ведь на кону - Родина. Одна. Но для каждого своя…

Продолжительность: 8 серий по ~00:48:00
Качество видео: SATRip
КиноПоиск
Видеокодек: Xvid
Битрейт видео: ~1444 Kb/s
Размер кадра: 704 x 368
Аудиокодек: MP3 2.0
Битрейт аудио: 192 Kb/s

MediaInfo:

General
Format                                   : AVI
Format/Info                              : Audio Video Interleave
File size                                : 564 MiB
Duration                                 : 47mn 53s
Overall bit rate                         : 1 645 Kbps
Writing application                      : VirtualDubModRus 1.5.10.2 (build 2542/release)
Writing library                          : VirtualDubMod build 2542/release
Video
ID                                       : 0
Format                                   : MPEG-4 Visual
Format profile                           : Advanced [email protected]
Format settings, BVOP                    : 1
Format settings, QPel                    : No
Format settings, GMC                     : No warppoints
Format settings, Matrix                  : Default (MPEG)
Codec ID                                 : XVID
Codec ID/Hint                            : XviD
Duration                                 : 47mn 53s
Bit rate                                 : 1 444 Kbps
Width                                    : 704 pixels
Height                                   : 368 pixels
Display aspect ratio                     : 1.913
Frame rate                               : 25.000 fps
Color space                              : YUV
Chroma subsampling                       : 4:2:0
Bit depth                                : 8 bits
Scan type                                : Progressive
Compression mode                         : Lossy
Bits/(Pixel*Frame)                       : 0.223
Stream size                              : 495 MiB (88%)
Writing library                          : XviD 1.2.1 (UTC 2008-12-04)
Audio
ID                                       : 1
Format                                   : MPEG Audio
Format version                           : Version 1
Format profile                           : Layer 3
Mode                                     : Joint stereo
Mode extension                           : MS Stereo
Codec ID                                 : 55
Codec ID/Hint                            : MP3
Duration                                 : 47mn 53s
Bit rate mode                            : Constant
Bit rate                                 : 192 Kbps
Channel(s)                               : 2 channels
Sampling rate                            : 48.0 KHz
Compression mode                         : Lossy
Stream size                              : 65.8 MiB (12%)
Alignment                                : Aligned on interleaves
Interleave, duration                     : 40 ms (1.00 video frame)
Interleave, preload duration             : 504 ms
Writing library                          : LAME3.99r
Encoding settings                        : -m j -V 4 -q 2 -lowpass 18.6 -b 192
Скриншоты:

Яндекс.Метрика
Рейтинг@Mail.ru