Голый пистолет 2 1/2: Запах страха / The Naked Gun 2: The Smell of Fear (Дэвид Цукер / David Zucker) [1991 г., боевик, комедия, криминал, пародия, BDRip] AVO (Михалев, Горчаков, Живов)

 

Создавать темы 10-Мар-2014 04:22

-Голый пистолет 2 1/2: Запах страха / The Naked Gun 2: The Smell of Fear-- Год выпуска: 1991
Производство: США, Paramount Pictures
Жанр: боевик, комедия, криминал, пародия
Продолжительность: 01:25:06-Перевод: Авторский (одноголосый, закадровый) Михалев
Перевод 2: Авторский (одноголосый, закадровый) Горчаков
Перевод 3: Авторский (одноголосый, закадровый) Живов-Субтитры: отсутствуют
Режиссер: Дэвид Цукер / David Zucker
В ролях: Лесли Нильсен, Присцилла Пресли, Джордж Кеннеди, Робер Гуле, Ричард Гриффитс, Жаклин Брукс, Энтони Джеймс, Ллойд Бокнер, Тим О’Коннор, Питер Марк Ричман, Эд Уильямс, Джон Рорк, Марджери Росс, Питер Ван Норден, Гэйл Нили, Коллин Фицпатрик, Сэлли Розенблатт, Александр Фолк, Ларри МакКормик, Клифф Бемис, Д.Д. Ховард, Уильям Вудсон, Билл Чемерка, Кристофер Дж. Кин, Кен Керман, Эл Фэнн, Том МакГриви, Джеймс Гилстрап, Вейрд Эл Янкович, Джина Мастроджакомо, Джефф Райт, Гокул, Джон Стивенс, Шарлотта Цукер, Дон Пагсли, Карлос Бетанкорт, Бернардо Маркез, Маргарито Мендоза, Ли Терри, Мэнни Перри, Алекс Зиммерман.--Описание: Лейтенант полиции Френк Дребин по — прежнему трудится на ниве поимки нарушителей правопорядка, параллельно ища вопросы глобального свойства, например, о том, когда ему предстоит продемонстрировать все, на что он способен. И вот наступает ответственный момент. Некий злодей плетет страшные козни и замышляет уничтожить весь мир. Но не тут-то было. Храбрый полицейский как всегда начеку…--Качество видео: BDRip
Контейнер: AVI
Видео кодек: XviD
Аудио кодек: AC3
Видео: 720x400 (1.80:1), 23.976 fps, XviD MPEG-4 ~1975 kbps avg, 0.29 bit/pixel-Аудио : 48 kHz, AC3 Dolby Digital, 3/2 (L,C,R,l,r) + LFE ch, ~448 kbps - Алексей Михалев
Аудио #2: 48 kHz, AC3 Dolby Digital, 3/2 (L,C,R,l,r) + LFE ch, ~448 kbps - Василий Горчаков
Аудио #3: 48 kHz, AC3 Dolby Digital, 2 ch, ~192.00 kbps avg - Юрий Живов-

Награды

I frames: 1542 frames, size = 26031/40140826, quants = 2 / 2.00 / 2
P frames: 46544 frames, size = 17310/805705218, quants = 2 / 2.00 / 2
B frames: 74338 frames, size = 5593/415819477, quants = 3 / 3.00 / 3

Media Info

Format : AVI
Format/Info : Audio Video Interleave
File size : 1.83 GiB
Duration : 1h 25mn
Overall bit rate : 3 083 Kbps
Writing application : VirtualDubMod 1.5.10.2 (build 2540/release)
Writing library : VirtualDubMod build 2540/release
Video
ID : 0
Format : MPEG-4 Visual
Format profile : Advanced [email protected]
Format settings, BVOP : Yes
Format settings, QPel : No
Format settings, GMC : No warppoints
Format settings, Matrix : Custom
Codec ID : XVID
Codec ID/Hint : XviD
Duration : 1h 25mn
Bit rate : 1 977 Kbps
Width : 720 pixels
Height : 400 pixels
Display aspect ratio : 16:9
Frame rate : 23.976 fps
Color space : YUV
Chroma subsampling : 4:2:0
Bit depth : 8 bits
Scan type : Progressive
Compression mode : Lossy
Bits/(Pixel*Frame) : 0.286
Stream size : 1.18 GiB (64%)
Writing library : XviD 73
Audio #1
ID : 1
Format : AC-3
Format/Info : Audio Coding 3
Mode extension : CM (complete main)
Format settings, Endianness : Big
Codec ID : 2000
Duration : 1h 25mn
Bit rate mode : Constant
Bit rate : 448 Kbps
Channel count : 6 channels
Channel positions : Front: L C R, Side: L R, LFE
Sampling rate : 48.0 KHz
Bit depth : 16 bits
Compression mode : Lossy
Stream size : 273 MiB (15%)
Alignment : Split accross interleaves
Interleave, duration : 42 ms (1.00 video frame)
Interleave, preload duration : 500 ms
Audio #2
ID : 2
Format : AC-3
Format/Info : Audio Coding 3
Mode extension : CM (complete main)
Format settings, Endianness : Big
Codec ID : 2000
Duration : 1h 25mn
Bit rate mode : Constant
Bit rate : 448 Kbps
Channel count : 6 channels
Channel positions : Front: L C R, Side: L R, LFE
Sampling rate : 48.0 KHz
Bit depth : 16 bits
Compression mode : Lossy
Stream size : 273 MiB (15%)
Alignment : Split accross interleaves
Interleave, duration : 42 ms (1.00 video frame)
Interleave, preload duration : 500 ms
Audio #3
ID : 3
Format : AC-3
Format/Info : Audio Coding 3
Mode extension : CM (complete main)
Format settings, Endianness : Big
Codec ID : 2000
Duration : 1h 25mn
Bit rate mode : Constant
Bit rate : 192 Kbps
Channel count : 2 channels
Channel positions : Front: L R
Sampling rate : 48.0 KHz
Bit depth : 16 bits
Compression mode : Lossy
Stream size : 117 MiB (6%)
Alignment : Split accross interleaves
Interleave, duration : 42 ms (1.00 video frame)
Interleave, preload duration : 500 ms

Скриншоты

-
Яндекс.Метрика
Рейтинг@Mail.ru