Рок-н-ролл для принцесс (Радомир Василевский) [1990 г., комедия, семейный, DVDRip-AVC]

 

Создавать темы 05-Мар-2014 02:32

-Рок-н-ролл для принцесс- Производство: СССР
Режиссер: Радомир Василевский
Жанр: комедия, семейный
Год выпуска: 1990 г.
Продолжительность: 02:22:27
В ролях:
Валерий Ивченко
Светлана Немоляева
Виктор Павлов
Александр Пашутин
Игорь Письменный
Валентина Касьянова
Андрей Анкудинов
Надежда Самсонова
Софья Горшкова
Михаил Дементьев-Описание: Король и королева мармеладного государства задумали женить принца, для этого затеяли конкурс принцесс, превратившийся в забавный, в стиле рок-н-ролл, полный шуток и юмора праздник, который окончился победой любви двух чистых молодых сердец.-Качество видео: DVDRip-AVC
Контейнер: MKV
Видео кодек: H.264
Аудио кодек: AC3
Видео: MPEG4 Video (H264) 688x496 25fps 1068 Kbps
Аудио: Dolby AC3 48000Hz 6ch 384 Kbps
Cубтитры: отсутствуют

Media Info

Общее
Уникальный идентификатор : 199474200752954670891325603262221324796 (0x961155692FFAA8AEADBAEAFED83511FC)
Полное имя : D:\Rock.n.roll.dlya.princess.1990.DVDRip-AVC.mkv
Формат : Matroska
Версия формата : Version 4 / Version 2
Размер файла : 1,45 Гбайт
Продолжительность : 2 ч. 22 м.
Общий поток : 1454 Кбит/сек
Название фильма : erchine by http://Pirat.CA
Дата кодирования : UTC 2014-03-04 15:33:39
Программа кодирования : mkvmerge v6.6.0 ('The Edge Of The In Between') built on Dec 1 2013 17:55:00
Библиотека кодирования : libebml v1.3.0 + libmatroska v1.4.1
Видео
Идентификатор : 1
Формат : AVC
Формат/Информация : Advanced Video Codec
Профиль формата : [email protected]
Параметр CABAC формата : Да
Параметр ReFrames формата : 7 кадров
Идентификатор кодека : V_MPEG4/ISO/AVC
Продолжительность : 2 ч. 22 м.
Битрейт : 1068 Кбит/сек
Ширина : 688 пикселей
Высота : 496 пикселей
Соотношение сторон : 1,387
Режим частоты кадров : Постоянный
Частота кадров : 25,000 кадров/сек
Цветовое пространство : YUV
Субдискретизация насыщенности : 4:2:0
Битовая глубина : 8 бит
Тип развёртки : Прогрессивная
Бит/(Пиксели*Кадры) : 0.125
Размер потока : 1,04 Гбайт (72%)
Библиотека кодирования : x264 core 130 r2273 b3065e6
Настройки программы : cabac=1 / ref=7 / deblock=1:0:0 / analyse=0x3:0x133 / me=umh / subme=9 / psy=1 / psy_rd=0.40:0.00 / mixed_ref=1 / me_range=24 / chroma_me=1 / trellis=2 / 8x8dct=1 / cqm=0 / deadzone=21,11 / fast_pskip=0 / chroma_qp_offset=-2 / threads=3 / lookahead_threads=1 / sliced_threads=0 / nr=0 / decimate=1 / interlaced=0 / bluray_compat=0 / constrained_intra=0 / bframes=6 / b_pyramid=2 / b_adapt=2 / b_bias=0 / direct=3 / weightb=1 / open_gop=0 / weightp=2 / keyint=250 / keyint_min=25 / scenecut=40 / intra_refresh=0 / rc_lookahead=50 / rc=2pass / mbtree=1 / bitrate=1068 / ratetol=1.0 / qcomp=0.60 / qpmin=0 / qpmax=69 / qpstep=4 / cplxblur=20.0 / qblur=0.5 / ip_ratio=1.40 / aq=1:0.60
Default : Да
Forced : Нет
Аудио
Идентификатор : 2
Формат : AC-3
Формат/Информация : Audio Coding 3
Расширение режима : CM (complete main)
Параметр Endianness формата : Big
Идентификатор кодека : A_AC3
Продолжительность : 2 ч. 22 м.
Вид битрейта : Постоянный
Битрейт : 384 Кбит/сек
Каналы : 6 каналов
Расположение каналов : Front: L C R, Side: L R, LFE
Частота : 48,0 КГц
Битовая глубина : 16 бит
Метод сжатия : С потерями
Размер потока : 391 Мбайт (26%)
Default : Да
Forced : Нет

Скриншоты

Яндекс.Метрика
Рейтинг@Mail.ru