(Шансон, Рор) VA - Шоферской 29 - 2013, FLAC (image+.cue), lossless

 

Создавать темы 04-Мар-2014 22:55

--VA - Шоферской 29 -- Жанр: Шансон, Рор
Страна-производитель диска: Россия
Год издания: 2013
Издатель (лейбл): Торговая Фирма "Никитин"
Номер по каталогу: 13-229
Страна: Россия
Аудиокодек: FLAC (*.flac)
Тип рипа: image+.cue
Битрейт аудио: lossless
Продолжительность: 01:12:53
Наличие сканов в содержимом раздачи: да
Треклист:

01. Жека - В Тоннеле третьего кольца
02. Григорий Лепс - Московская песня
03. Джанго - До тебя
04. Елена Ваенга - Невеста /новая версия/
05. Николай Агутин - Блинчики
06. Слава - Новая жизнь
07. Денис Клявер - Странный сон
08. Ирина Круг - Ключики
09. Нико Неман - Краденое счастье
10. Валерий Палаускас - Стефания
11. Леонид Агутин - Пора домой
12. Артур - Мгновения
13. Родион Газманов - Осторожно
14. Лесоповал - Мне улыбнись
15. Витас - Разлучила нас любовь
16. Григорий Лепс - Старый черт
17. Белое Золото - Одна такая
18. Сергей Куприк - Так - так
19. Рада Рай - Одно сердце на двоих
20. Мухтар Хордаев - В поисках себя

Отчёт EAC

Exact Audio Copy V1.0 beta 3 from 29. August 2011
Отчёт EAC об извлечении, выполненном 15. октября 2013, 10:59
Various Artists / Шоферской 29
Дисковод: Optiarc DVD RW AD-5280S Adapter: 2 ID: 1
Режим чтения : Достоверность
Использование точного потока : Да
Отключение кэша аудио : Да
Использование указателей C2 : Нет
Коррекция смещения при чтении : 48
Способность читать области Lead-in и Lead-out : Нет
Заполнение пропущенных сэмплов тишиной : Да
Удаление блоков с тишиной в начале и конце : Нет
При вычислениях CRC использовались нулевые сэмплы : Да
Интерфейс : Встроенный Win32-интерфейс для Win NT/2000
Выходной формат : Пользовательский кодировщик
Выбранный битрейт : 896 kBit/s
Качество : Высокий
Добавление ID3-тега : Нет
Утилита сжатия : C:\Program Files\EACPortable\App\EAC\FLAC\flac.exe
Дополнительные параметры : -6 -V -T "ARTIST=%artist%" -T "TITLE=%title%" -T "ALBUM=%albumtitle%" -T "DATE=%year%" -T "TRACKNUMBER=%tracknr%" -T "GENRE=%genre%" -T "COMMENT=%comment%" %hascover%--picture="%coverfile%"%hascover% %source% -o %dest%
TOC извлечённого CD
Трек | Старт | Длительность | Начальный сектор | Конечный сектор
---------------------------------------------------------------------
1 | 0:00.00 | 3:44.25 | 0 | 16824
2 | 3:44.25 | 3:30.23 | 16825 | 32597
3 | 7:14.48 | 3:24.31 | 32598 | 47928
4 | 10:39.04 | 3:48.51 | 47929 | 65079
5 | 14:27.55 | 4:00.32 | 65080 | 83111
6 | 18:28.12 | 3:26.30 | 83112 | 98591
7 | 21:54.42 | 3:20.61 | 98592 | 113652
8 | 25:15.28 | 3:20.22 | 113653 | 128674
9 | 28:35.50 | 3:20.10 | 128675 | 143684
10 | 31:55.60 | 4:19.19 | 143685 | 163128
11 | 36:15.04 | 3:29.69 | 163129 | 178872
12 | 39:44.73 | 3:06.65 | 178873 | 192887
13 | 42:51.63 | 3:56.59 | 192888 | 210646
14 | 46:48.47 | 3:53.34 | 210647 | 228155
15 | 50:42.06 | 4:02.55 | 228156 | 246360
16 | 54:44.61 | 3:37.22 | 246361 | 262657
17 | 58:22.08 | 3:58.67 | 262658 | 280574
18 | 62:21.00 | 3:14.51 | 280575 | 295175
19 | 65:35.51 | 3:40.05 | 295176 | 311680
20 | 69:15.56 | 3:38.01 | 311681 | 328031
Характеристики диапазона извлечения и сообщения об ошибках
Выбранный диапазон
Имя файла G:\Сборники (Lossless)\Various Artists - Шоферской 29.wav
Пиковый уровень 97.0 %
Скорость извлечения 4.4 X
Качество диапазона 99.9 %
CRC теста 47B0B5D3
CRC копии 47B0B5D3
Копирование... OK
Ошибок не произошло
Конец отчёта
Яндекс.Метрика
Рейтинг@Mail.ru