(Pop) Наталия Власова - Романсы - 2012, FLAC (image+.cue), lossless

 

Создавать темы 04-Мар-2014 22:46

--Наталия Власова - Романсы-- Жанр: Pop
Страна-производитель диска: Рoссия
Год издания: 2012
Издатель (лейбл): Квадро-Диск
Номер по каталогу: KTL12-728
Страна: Рoссия
Аудиокодек: FLAC (*.flac)
Тип рипа: image+.cue
Битрейт аудио: lossless
Продолжительность: 01:08:24
Наличие сканов в содержимом раздачи: да
Треклист:

01. Колкими фразами (4:27)
02. На закате (3:42)
03. Я у твоих ног (3:22)
04. Не беда разлука (4:39)
05. Ночами (3:28)
06. Русалки (4:06)
07. Та любовь (3:37)
08. Луч (4:00)
09. Не понимаю (4:02)
10. Блюз (3:50)
11. Без названия (3:16)
12. Где тебя найти (дуэт с О.Орловой) (3:25)
13. Случилась любовь (3:44)
14. Райское яблоко (3:49)
15. Капля (3:07)
16. На тебя обиделась (3:08)
17. Что это значит (4:15)
18. Мы влюбленные (дуэт с В.Пресняковым-мл.) (4:27)

Отчёт EAC

Exact Audio Copy V1.0 beta 3 from 29. August 2011
Отчёт EAC об извлечении, выполненном 10. октября 2013, 0:02
Наталия Власова / Романсы
Дисковод: ASUS DRW-1814BLT Adapter: 3 ID: 0
Режим чтения : Достоверность
Использование точного потока : Да
Отключение кэша аудио : Да
Использование указателей C2 : Нет
Коррекция смещения при чтении : 6
Способность читать области Lead-in и Lead-out : Нет
Заполнение пропущенных сэмплов тишиной : Да
Удаление блоков с тишиной в начале и конце : Нет
При вычислениях CRC использовались нулевые сэмплы : Да
Интерфейс : Встроенный Win32-интерфейс для Win NT/2000
Выходной формат : Внутренние WAV-операции
Формат сэмплов : 44.100 Гц; 16 бит; стерео
TOC извлечённого CD
Трек | Старт | Длительность | Начальный сектор | Конечный сектор
---------------------------------------------------------------------
1 | 0:00.00 | 4:26.71 | 0 | 20020
2 | 4:26.71 | 3:42.01 | 20021 | 36671
3 | 8:08.72 | 3:21.50 | 36672 | 51796
4 | 11:30.47 | 4:38.48 | 51797 | 72694
5 | 16:09.20 | 3:27.54 | 72695 | 88273
6 | 19:36.74 | 4:05.48 | 88274 | 106696
7 | 23:42.47 | 3:37.18 | 106697 | 122989
8 | 27:19.65 | 4:00.07 | 122990 | 140996
9 | 31:19.72 | 4:01.43 | 140997 | 159114
10 | 35:21.40 | 3:49.74 | 159115 | 176363
11 | 39:11.39 | 3:16.01 | 176364 | 191064
12 | 42:27.40 | 3:25.03 | 191065 | 206442
13 | 45:52.43 | 3:44.02 | 206443 | 223244
14 | 49:36.45 | 3:49.12 | 223245 | 240431
15 | 53:25.57 | 3:07.34 | 240432 | 254490
16 | 56:33.16 | 3:08.17 | 254491 | 268607
17 | 59:41.33 | 4:14.71 | 268608 | 287728
18 | 63:56.29 | 4:27.24 | 287729 | 307777
Характеристики диапазона извлечения и сообщения об ошибках
Выбранный диапазон
Имя файла C:\Наталия Власова - Романсы\Наталия Власова - Романсы.wav
Пиковый уровень 97.9 %
Скорость извлечения 8.2 X
Качество диапазона 100.0 %
CRC теста 4D3694BC
CRC копии 4D3694BC
Копирование... OK
Ошибок не произошло
AccurateRip: сводка
Трек 1 отсутствует в базе данных
Трек 2 отсутствует в базе данных
Трек 3 отсутствует в базе данных
Трек 4 отсутствует в базе данных
Трек 5 отсутствует в базе данных
Трек 6 отсутствует в базе данных
Трек 7 отсутствует в базе данных
Трек 8 отсутствует в базе данных
Трек 9 отсутствует в базе данных
Трек 10 отсутствует в базе данных
Трек 11 отсутствует в базе данных
Трек 12 отсутствует в базе данных
Трек 13 отсутствует в базе данных
Трек 14 отсутствует в базе данных
Трек 15 отсутствует в базе данных
Трек 16 отсутствует в базе данных
Трек 17 отсутствует в базе данных
Трек 18 отсутствует в базе данных
Ни одного трека нет в базе AccurateRip
Конец отчёта
==== Контрольная сумма отчёта 3A65D4BAAFAD22D55CCD1CE4DDE01A84D352DF94B91B36DBA188F769261D2B6D ====
Яндекс.Метрика
Рейтинг@Mail.ru