Похмельные игры / The Hungover Games (Джош Столберг / Josh Stolberg) [2014 г., комедия, WEB-DL] MVO (iTunes)

 

Создавать темы 04-Мар-2014 02:44

-Похмельные игры / The Hungover Games-- Производство: США Sense and Sensibility Ventures
Год выпуска: 2014 г.
Жанр: комедия
Продолжительность: 01:25:01
Мировая премьера: 11 февраля 2014
Перевод: Профессиональный (многоголосый, закадровый) [iTunes]
Режиссер: Джош Столберг / Josh Stolberg-В ролях: Росс Нэйтан, Сэм Пэнкейк, Бен Бегли, Рассел Харпер, Джон Ливингстон, Дэмиен Брэй, Тара Рид, Джейми Кеннеди, Шанель Гейнс-Описание: После празднования предстоящей свадьбы Доуга в отеле в Лафлине, штат Невада, Брэдли, Эд и Зак приходят в себя в футуристической антиутопии, потеряв своего друга — Доуга.-Качество видео: WEB-DL
Контейнер: AVI
Видео кодек: XviD
Аудио кодек: AC3
Видео: 688x384 (1.79:1), 23.976 fps, XviD build 50 ~1895 kbps avg, 0.30 bit/pixel
Аудио: Rus: 48 kHz, AC3 Dolby Digital, 3/2 (L,C,R,l,r) + LFE ch, ~384 kbps (iTunes)
Cубтитры: отсутствуют

Media Info

Общее
Полное имя : W:\Pohmel'nye.igry.2014.WEB-DLRip.avi
Формат : AVI
Формат/Информация : Audio Video Interleave
Размер файла : 1,37 Гбайт
Продолжительность : 1 ч. 25 м.
Общий поток : 2287 Кбит/сек
Программа кодирования : VirtualDubMod 1.5.10.2 (build 2540/release)
Библиотека кодирования : VirtualDubMod build 2540/release
Видео
Идентификатор : 0
Формат : MPEG-4 Visual
Профиль формата : Advanced [email protected]
Параметр BVOP формата : 2
Параметр QPel формата : Нет
Параметр GMC формата : Без точки перехода
Параметр матрицы формата : Default (H.263)
Идентификатор кодека : XVID
Идентификатор кодека/Подсказка : XviD
Продолжительность : 1 ч. 25 м.
Битрейт : 1896 Кбит/сек
Ширина : 688 пикс.
Высота : 384 пикс.
Соотношение сторон : 16:9
Частота кадров : 23,976 кадр/сек
Цветовое пространство : YUV
Подвыборка цветности : 4:2:0
Битовая глубина : 8 бит
Тип развёртки : Прогрессивная
Метод сжатия : С потерями
Бит/(Пиксели*Кадры) : 0.299
Размер потока : 1,13 Гбайт (83%)
Библиотека кодирования : XviD 1.2.1 (UTC 2008-12-04)
Аудио
Идентификатор : 1
Формат : AC-3
Формат/Информация : Audio Coding 3
Расширение режима : CM (complete main)
Идентификатор кодека : 2000
Продолжительность : 1 ч. 25 м.
Вид битрейта : Постоянный
Битрейт : 384 Кбит/сек
Канал(ы) : 6 канала(ов)
Расположение каналов : Front: L C R, Side: L R, LFE
Частота : 48,0 КГц
Битовая глубина : 16 бит
Метод сжатия : С потерями
Размер потока : 234 Мбайт (17%)
Выравнивание : Разделение по промежуткам
Продолжительность промежутка : 42 мс. (1,00 видеокадр)
Время предзагрузки промежутка : 500 ms

Скриншоты

Яндекс.Метрика
Рейтинг@Mail.ru