[ Сегодня на трекере фрилич! Идет свободное скачивание без начисления Download ]

Холодное сердце / Frozen (Крис Бак, Дженнифер Ли / Chris Buck, Jennifer Lee) [2013 г., мультфильм, мюзикл, фэнтези, комедия, мелодрама, BDRip-AVC] Dub [чистый звук] + Original (Eng) + Sub (Rus, Eng) [Jolly Roger]

 

Создавать темы 04-Мар-2014 02:34

-Холодное сердце / Frozen- Год выпуска: 2013 г.
Производство: США
Жанр: мультфильм, мюзикл, фэнтези, комедия, мелодрама
Продолжительность: 01:42:13
Перевод: Профессиональный (полное дублирование) [чистый звук]
Оригинальный аудиопоток: английский
Режиссер: Крис Бак, Дженнифер Ли / Chris Buck, Jennifer Lee
В ролях: Кристен Белл, Идина Мензел, Джонатан Грофф, Джош Гад, Сантино Фонтана, Алан Тьюдик, Киаран Хайндс, Крис Уильямс, Стивен Дж. Андерсон, Майа Уилсон
Описание: Когда древнее предсказание сбывается и королевство погружается в объятия вечной зимы, трое бесстрашных героев — принцесса Анна, отважный Кристофф и его верный олень Свен — отправляются в горы, чтобы найти сестру Анны, Эльзу, которая может снять со страны леденящее заклятие. По пути их ждет множество увлекательных сюрпризов и захватывающих приключений: встреча с мистическими троллями, знакомство с очаровательным снеговиком по имени Олаф, горные вершины покруче Эвереста и магия в каждой снежинке. Анне и Кристоффу предстоит сплотиться и противостоять могучей стихии, чтобы спасти королевство и тех, кто им дорог…Качество видео: BDRip-AVC
Контейнер: MKV
Видео кодек: H.264
Аудио кодек: AC3
Видео: MPEG4 Video (H264) 1040x464 23.976fps 1385 Kbps
Аудио 1: Dolby AC3 48000Hz stereo 448 Kbps / Русский
Аудио 2: Dolby AC3 48000Hz stereo 192 Kbps / Английский
Субтитры: русские, английские (отключаемые)

Media Info / x.264

Log 2-nd pass

x264 [info]: using SAR=1/1
x264 [info]: using cpu capabilities: MMX2 SSE2Fast SSSE3 Cache64 SlowShuffle
x264 [info]: profile High, level 4.1
x264 [info]: frame I:1330 Avg QP:14.10 size: 67549
x264 [info]: frame P:44763 Avg QP:19.20 size: 12651
x264 [info]: frame B:100952 Avg QP:22.92 size: 4017
x264 [info]: consecutive B-frames: 7.1% 5.1% 26.9% 25.6% 14.1% 19.0% 2.1%
x264 [info]: mb I I16..4: 14.6% 37.9% 47.5%
x264 [info]: mb P I16..4: 3.6% 8.2% 2.3% P16..4: 30.1% 10.3% 8.5% 1.2% 0.3% skip:35.4%
x264 [info]: mb B I16..4: 0.7% 2.0% 0.5% B16..8: 22.3% 6.9% 1.9% direct: 1.8% skip:63.9% L0:39.9% L1:44.0% BI:16.1%
x264 [info]: 8x8 transform intra:57.3% inter:48.0%
x264 [info]: direct mvs spatial:87.0% temporal:13.0%
x264 [info]: coded y,uvDC,uvAC intra: 63.0% 57.1% 33.0% inter: 11.1% 7.5% 2.4%
x264 [info]: i16 v,h,dc,p: 26% 25% 19% 30%
x264 [info]: i8 v,h,dc,ddl,ddr,vr,hd,vl,hu: 15% 21% 20% 5% 7% 6% 9% 6% 11%
x264 [info]: i4 v,h,dc,ddl,ddr,vr,hd,vl,hu: 20% 15% 19% 5% 9% 8% 8% 6% 9%
x264 [info]: i8c dc,h,v,p: 34% 33% 18% 15%
x264 [info]: Weighted P-Frames: Y:2.1% UV:1.5%
x264 [info]: ref P L0: 58.9% 10.2% 11.5% 6.7% 3.8% 4.8% 3.1% 1.1% 0.0%
x264 [info]: ref B L0: 83.2% 7.6% 5.1% 2.1% 1.4% 0.6%
x264 [info]: ref B L1: 93.4% 6.6%
x264 [info]: kb/s:1384.91
x264 [total]: encoded 147045 frames, 3.50 fps, 1384.91 kb/s
General
Unique ID : 175921314101351927841014700260086579530 (0x845936716F41DF7CB6445394D875014A)
Complete name : H:\Holodnoe.serdce.2013.H.264.BDRip-AVC.JRG.mkv
Format : Matroska
Format version : Version 4 / Version 2
File size : 1.45 GiB
Duration : 1h 42mn
Overall bit rate : 2 027 Kbps
Movie name : The Jolly Roger Release Group by
Encoded date : UTC 2014-03-03 15:41:30
Writing application : mkvmerge v6.6.0 ('The Edge Of The In Between') built on Dec 1 2013 17:55:00
Writing library : libebml v1.3.0 + libmatroska v1.4.1
Video
ID : 1
Format : AVC
Format/Info : Advanced Video Codec
Format profile : [email protected]
Format settings, CABAC : Yes
Format settings, ReFrames : 7 frames
Codec ID : V_MPEG4/ISO/AVC
Duration : 1h 42mn
Bit rate : 1 385 Kbps
Width : 1 040 pixels
Height : 464 pixels
Display aspect ratio : 2.25:1
Frame rate mode : Constant
Frame rate : 23.976 fps
Color space : YUV
Chroma subsampling : 4:2:0
Bit depth : 8 bits
Scan type : Progressive
Bits/(Pixel*Frame) : 0.120
Stream size : 985 MiB (66%)
Writing library : x264 core 130 r2273 b3065e6
Encoding settings : cabac=1 / ref=7 / deblock=1:0:0 / analyse=0x3:0x133 / me=umh / subme=10 / psy=0 / mixed_ref=1 / me_range=24 / chroma_me=1 / trellis=2 / 8x8dct=1 / cqm=0 / deadzone=21,11 / fast_pskip=0 / chroma_qp_offset=0 / threads=3 / lookahead_threads=1 / sliced_threads=0 / nr=0 / decimate=1 / interlaced=0 / bluray_compat=0 / constrained_intra=0 / bframes=6 / b_pyramid=2 / b_adapt=2 / b_bias=0 / direct=3 / weightb=1 / open_gop=0 / weightp=2 / keyint=250 / keyint_min=23 / scenecut=40 / intra_refresh=0 / rc_lookahead=50 / rc=2pass / mbtree=1 / bitrate=1385 / ratetol=1.0 / qcomp=0.60 / qpmin=0 / qpmax=69 / qpstep=4 / cplxblur=20.0 / qblur=0.5 / ip_ratio=1.40 / aq=1:1.00
Default : Yes
Forced : No
Audio #1
ID : 2
Format : AC-3
Format/Info : Audio Coding 3
Mode extension : CM (complete main)
Format settings, Endianness : Big
Codec ID : A_AC3
Duration : 1h 42mn
Bit rate mode : Constant
Bit rate : 448 Kbps
Channel(s) : 2 channels
Channel positions : Front: L R
Sampling rate : 48.0 KHz
Bit depth : 16 bits
Compression mode : Lossy
Stream size : 328 MiB (22%)
Language : Russian
Default : Yes
Forced : No
Audio #2
ID : 3
Format : AC-3
Format/Info : Audio Coding 3
Mode extension : CM (complete main)
Format settings, Endianness : Big
Codec ID : A_AC3
Duration : 1h 42mn
Bit rate mode : Constant
Bit rate : 192 Kbps
Channel(s) : 2 channels
Channel positions : Front: L R
Sampling rate : 48.0 KHz
Bit depth : 16 bits
Compression mode : Lossy
Stream size : 140 MiB (9%)
Language : English
Default : No
Forced : No
Text #1
ID : 4
Format : UTF-8
Codec ID : S_TEXT/UTF8
Codec ID/Info : UTF-8 Plain Text
Language : Russian
Default : No
Forced : No
Text #2
ID : 5
Format : UTF-8
Codec ID : S_TEXT/UTF8
Codec ID/Info : UTF-8 Plain Text
Language : English
Default : No
Forced : No

Скриншоты

Яндекс.Метрика
Рейтинг@Mail.ru