(Шансон) Беломорканал - Лучшее - 2004, FLAC (image+.cue), lossless

 

Создавать темы 02-Мар-2014 08:49

--гр. Беломорканал - Лучшее-- Жанр: Шансон
Страна-производитель диска: Россия
Год издания диска: 2004
Издатель (лейбл): Классик Компани
Номер по каталогу: СС CD 16/04
Аудиокодек: FLAC (*.flac)
Тип рипа: image+.cue
Битрейт аудио: lossless
Продолжительность: 01:14:33
Наличие сканов в содержимом раздачи: да
Треклист:


01. Беломор и Волга-Балт (3:06)
02. Волчья песня (5:05)
03. Своя судьба (2:56)
04. Про ментов (3:34)
05. Срок (3:48)
06. Путеводная звезда (3:46)
07. Урка Мишка (3:09)
08. Чифирок в карманчике (3:19)
09. Лагеря (4:23)
10. Жиган и Жучка (4:11)
11. Кресты (3:59)
12. Люба+жиган (4:24)
13. А... поворуем? (3:12)
14. Ночь над Магаданом (5:33)
15. Беня (3:15)
16. Всё украли (3:45)
17. Понты (3:58)
18. БАМъ (3:06)
19. Пила (2:01)
20. Папиросочка (4:03)

Отчёт ЕАС

Exact Audio Copy V1.0 beta 3 from 29. August 2011
Отчёт EAC об извлечении, выполненном 1. декабря 2011, 20:25
Беломорканал / Лучшее
Дисковод: ASUS DRW-1814BLT Adapter: 2 ID: 0
Режим чтения : Достоверность
Использование точного потока : Да
Отключение кэша аудио : Да
Использование указателей C2 : Нет
Коррекция смещения при чтении : 6
Способность читать области Lead-in и Lead-out : Нет
Заполнение пропущенных сэмплов тишиной : Да
Удаление блоков с тишиной в начале и конце : Нет
При вычислениях CRC использовались нулевые сэмплы : Да
Интерфейс : Встроенный Win32-интерфейс для Win NT/2000
Выходной формат : Внутренние WAV-операции
Формат сэмплов : 44.100 Гц; 16 бит; стерео
TOC извлечённого CD
Трек | Старт | Длительность | Начальный сектор | Конечный сектор
---------------------------------------------------------------------
1 | 0:00.00 | 3:06.10 | 0 | 13959
2 | 3:06.10 | 5:04.63 | 13960 | 36822
3 | 8:10.73 | 2:55.53 | 36823 | 50000
4 | 11:06.51 | 3:33.44 | 50001 | 66019
5 | 14:40.20 | 3:47.61 | 66020 | 83105
6 | 18:28.06 | 3:46.20 | 83106 | 100075
7 | 22:14.26 | 3:09.18 | 100076 | 114268
8 | 25:23.44 | 3:18.64 | 114269 | 129182
9 | 28:42.33 | 4:22.44 | 129183 | 148876
10 | 33:05.02 | 4:10.48 | 148877 | 167674
11 | 37:15.50 | 3:58.50 | 167675 | 185574
12 | 41:14.25 | 4:24.12 | 185575 | 205386
13 | 45:38.37 | 3:12.24 | 205387 | 219810
14 | 48:50.61 | 5:33.33 | 219811 | 244818
15 | 54:24.19 | 3:15.13 | 244819 | 259456
16 | 57:39.32 | 3:45.24 | 259457 | 276355
17 | 61:24.56 | 3:58.04 | 276356 | 294209
18 | 65:22.60 | 3:06.16 | 294210 | 308175
19 | 68:29.01 | 2:01.08 | 308176 | 317258
20 | 70:30.09 | 4:02.51 | 317259 | 335459
Характеристики диапазона извлечения и сообщения об ошибках
Выбранный диапазон
Имя файла F:\Lossless\1. Шансон, Авторская и Военная песня\Русский шансон (А-Б-В-Г)\Беломорканал, группа (Арутюнян Стёпа)\Беломорканал - Лучшее - 2004\Беломорканал - Лучшее.wav
Пиковый уровень 95.0 %
Скорость извлечения 10.1 X
Качество диапазона 100.0 %
CRC теста 5F873AF4
CRC копии 5F873AF4
Копирование... OK
Ошибок не произошло
AccurateRip: сводка
Трек 1 отсутствует в базе данных
Трек 2 отсутствует в базе данных
Трек 3 отсутствует в базе данных
Трек 4 отсутствует в базе данных
Трек 5 отсутствует в базе данных
Трек 6 отсутствует в базе данных
Трек 7 отсутствует в базе данных
Трек 8 отсутствует в базе данных
Трек 9 отсутствует в базе данных
Трек 10 отсутствует в базе данных
Трек 11 отсутствует в базе данных
Трек 12 отсутствует в базе данных
Трек 13 отсутствует в базе данных
Трек 14 отсутствует в базе данных
Трек 15 отсутствует в базе данных
Трек 16 отсутствует в базе данных
Трек 17 отсутствует в базе данных
Трек 18 отсутствует в базе данных
Трек 19 отсутствует в базе данных
Трек 20 отсутствует в базе данных
Ни одного трека нет в базе AccurateRip
Конец отчёта
==== Контрольная сумма отчёта 8F5DAD45C406A26B55059647E920EBBFA5DE8AE4085FB44ED8ACAA8124158703 ====
Яндекс.Метрика
Рейтинг@Mail.ru