[ Сегодня на трекере фрилич! Идет свободное скачивание без начисления Download ]

(Шансон) VA - Хиты 2012: Блатуют все - Chanson - 2012, FLAC (image+.cue), lossless

 

Создавать темы 02-Мар-2014 08:43

--Хиты 2012: Блатуют все - Chanson-- Страна-производитель диска: Украина
Жанр: Шансон
Год издания диска: 2012
Издатель (лейбл): MOON RECORDS
Номер по каталогу: MR 5362-2
Аудиокодек: FLAC (*.flac)
Тип рипа: image+.cue
Битрейт аудио: lossless
Продолжительность: 01:15:45
Наличие сканов в содержимом раздачи: да
Треклист

01. Любовь Успенская - Скрипка [ 03:50 ]
02. Вася Обломов feat. Ленинград - От души [ 03:24 ]
03. Прохор Громов - Косячок [ 03:40 ]
04. Антін Мухарський та Сніжана Єгорова - Най-най-най [ 03:17 ]
05. Billy's Band - За тех, кто в море [ 04:46 ]
06. Святослав Вакарчук (вночі) - Дзвони [ 04:19 ]
07. Наталья Могилевская - Изменница [ 03:24 ]
08. Сергей Трофимов - Ангел-хранитель [ 03:32 ]
09. Алексей Савченко - Испытание поражением [ 03:34 ]
10. Александр Розенбаум - Бережённого Бог бережёт [ 04:23 ]
11. Алексей Шпортько - Приходи [ 03:52 ]
12. Александр Антимиров - Я тебя забыл [ 04:31 ]
13. ТІК і Ірина Білик - Не цілуй [ 03:42 ]
14. Олег Шак - Привет зима [ 03:40 ]
15. Влад Цветаев - Всё о тебе [ 03:42 ]
16. Олег Павлишин - Печаль [ 03:32 ]
17. Александр Ярёменко - Ночь [ 04:19 ]
18. Виктор Павлик и Эмма Асатрян - Ду им эргн ес (зурна) [ 02:52 ]
19. Жорык Delieв и Запрещённые Барабанщики - Картопелька [ 04:10 ]
20. El. Кравчук feat. Верка Сердючка - Лети на свет [ 03:09 ]

Отчёт EAC

Exact Audio Copy V1.0 beta 1 from 15. November 2010
Отчёт EAC об извлечении, выполненном 13. января 2012, 22:08
Various / Блатуют все-Chanson
Дисковод: ASUS DRW-24B3ST Adapter: 0 ID: 1
Режим чтения : Достоверность
Использование точного потока : Да
Отключение кэша аудио : Да
Использование указателей C2 : Нет
Коррекция смещения при чтении : 6
Способность читать области Lead-in и Lead-out : Нет
Заполнение пропущенных сэмплов тишиной : Да
Удаление блоков с тишиной в начале и конце : Нет
При вычислениях CRC использовались нулевые сэмплы : Да
Интерфейс : Установленный внешний ASPI-интерфейс
Выходной формат : Пользовательский кодировщик
Выбранный битрейт : 768 kBit/s
Качество : Высокий
Добавление ID3-тэга : Нет
Утилита сжатия : C:\Program Files\Exact Audio Copy\Flac\flac.exe
Дополнительные параметры : -T "DATE=%y" -T "GENRE=%m" -8 -V %s
TOC извлечённого CD
Трек | Старт | Длительность | Начальный сектор | Конечный сектор
---------------------------------------------------------------------
1 | 0:00.00 | 3:50.12 | 0 | 17261
2 | 3:50.12 | 3:24.51 | 17262 | 32612
3 | 7:14.63 | 3:40.54 | 32613 | 49166
4 | 10:55.42 | 3:17.25 | 49167 | 63966
5 | 14:12.67 | 4:46.32 | 63967 | 85448
6 | 18:59.24 | 4:19.59 | 85449 | 104932
7 | 23:19.08 | 3:24.13 | 104933 | 120245
8 | 26:43.21 | 3:32.19 | 120246 | 136164
9 | 30:15.40 | 3:34.12 | 136165 | 152226
10 | 33:49.52 | 4:23.33 | 152227 | 171984
11 | 38:13.10 | 3:52.30 | 171985 | 189414
12 | 42:05.40 | 4:31.48 | 189415 | 209787
13 | 46:37.13 | 3:42.69 | 209788 | 226506
14 | 50:20.07 | 3:40.29 | 226507 | 243035
15 | 54:00.36 | 3:42.10 | 243036 | 259695
16 | 57:42.46 | 3:32.56 | 259696 | 275651
17 | 61:15.27 | 4:19.02 | 275652 | 295078
18 | 65:34.29 | 2:52.05 | 295079 | 307983
19 | 68:26.34 | 4:10.11 | 307984 | 326744
20 | 72:36.45 | 3:09.07 | 326745 | 340926
Характеристики диапазона извлечения и сообщения об ошибках
Выбранный диапазон
Имя файла D:\Winamp\Various - Блатуют все - Chanson.wav
Пиковый уровень 99.9 %
0.2 X
Качество диапазона 100.0 %
CRC теста A5E2D6A9
CRC копии A5E2D6A9
Копирование... OK
Ошибок не произошло
AccurateRip: сводка
Трек 1 нет в базе данных
Трек 2 нет в базе данных
Трек 3 нет в базе данных
Трек 4 нет в базе данных
Трек 5 нет в базе данных
Трек 6 нет в базе данных
Трек 7 нет в базе данных
Трек 8 нет в базе данных
Трек 9 нет в базе данных
Трек 10 нет в базе данных
Трек 11 нет в базе данных
Трек 12 нет в базе данных
Трек 13 нет в базе данных
Трек 14 нет в базе данных
Трек 15 нет в базе данных
Трек 16 нет в базе данных
Трек 17 нет в базе данных
Трек 18 нет в базе данных
Трек 19 нет в базе данных
Трек 20 нет в базе данных
Ни одного трека нет в базе AccurateRip
Конец отчёта
Яндекс.Метрика
Рейтинг@Mail.ru