Мой парень из зоопарка / Zookeeper (Фрэнк Корачи / Frank Coraci) [2011 г., мелодрама, комедия, семейный, BDRip, 720p] Dub + Sub (Rus, Eng)

 

Создавать темы 02-Мар-2014 04:41

-Мой парень из зоопарка / Zookeeper-«Добро пожаловать в его джунгли»- Производство: США
Год выпуска: 2011 г.
Жанр: мелодрама, комедия, семейный
Продолжительность: 01:41:53
Мировая премьера: 6 июля 2011
Российская премьера: 21 июля 2011, «WDSSPR»
Дата выхода DVD: 23 августа 2011, «Columbia/Sony»
Дата выхода Blu-Ray: 22 ноября 2011, «Columbia/Sony»
Перевод: Профессиональный (полное дублирование)
Режиссер: Фрэнк Корачи / Frank Coraci-В ролях: Кевин Джеймс, Розарио Доусон, Лесли Бибб, Кен Жонг, Донни Уолберг, Джо Роган,
Нат Факсон, Стеффиана Де Ла Круз, Ник Бакай, Джеки Сэндлер-Описание: Звери пытаются научить незадачливого смотрителя зоопарка методам обольщения противоположного пола для того, чтобы тот, наконец, завоевал сердце любимой девушки.-Качество видео: BDRip
Контейнер: MKV
Стандарт разрешения: 720p
Видео кодек: Другой MPEG4
Аудио кодек: AC3
Видео: AVC, 1280x536 (2.40:1) at 23.976 fps, AVC at 3454 kbps avg, 0.210 bit/pixel
Аудио: 48 kHz, AC3 Dolby Digital, 3/2 (L,C,R,l,r) + LFE ch, 640.00 kbps
Cубтитры: русские, английские

Media Info

Общее
Уникальный идентификатор : 207046445798667588421848334687755680966 (0x9BC3B1EA7D0D195DAF72B2BFEC45BCC6)
Полное имя : E:\Zookeeper.2011.BluRay.mkv
Формат : Matroska
Версия формата : Version 2
Размер файла : 2,97 Гбайт
Продолжительность : 1 ч. 41 м.
Общий поток : 4177 Кбит/сек
Дата кодирования : UTC 2013-08-12 10:03:42
Программа кодирования : mkvmerge v5.8.0 ('No Sleep / Pillow') built on Sep 2 2012 15:37:04
Библиотека кодирования : libebml v1.2.3 + libmatroska v1.3.0
Видео
Идентификатор : 1
Формат : AVC
Формат/Информация : Advanced Video Codec
Профиль формата : [email protected]
Параметр CABAC формата : Да
Параметр ReFrames формата : 9 кадров
Идентификатор кодека : V_MPEG4/ISO/AVC
Продолжительность : 1 ч. 41 м.
Битрейт : 3454 Кбит/сек
Ширина : 1280 пикселей
Высота : 536 пикселей
Соотношение сторон : 2,40:1
Режим частоты кадров : Постоянный
Частота кадров : 23,976 кадра/сек
Цветовое пространство : YUV
Субдискретизация насыщенности : 4:2:0
Битовая глубина : 8 бит
Тип развёртки : Прогрессивная
Бит/(Пиксели*Кадры) : 0.210
Размер потока : 2,46 Гбайт (83%)
Библиотека кодирования : x264 core 125 r2208 d9d2288
Настройки программы : cabac=1 / ref=9 / deblock=1:-3:-3 / analyse=0x3:0x133 / me=tesa / subme=11 / psy=1 / psy_rd=1.00:0.15 / mixed_ref=1 / me_range=32 / chroma_me=1 / trellis=2 / 8x8dct=1 / cqm=0 / deadzone=21,11 / fast_pskip=0 / chroma_qp_offset=-3 / threads=12 / lookahead_threads=2 / sliced_threads=0 / nr=0 / decimate=1 / interlaced=0 / bluray_compat=0 / constrained_intra=0 / bframes=8 / b_pyramid=2 / b_adapt=2 / b_bias=0 / direct=1 / weightb=1 / open_gop=0 / weightp=2 / keyint=250 / keyint_min=23 / scenecut=40 / intra_refresh=0 / rc=crf / mbtree=0 / crf=17.8 / qcomp=0.60 / qpmin=0 / qpmax=69 / qpstep=4 / ip_ratio=1.40 / pb_ratio=1.30 / aq=2:1.00
Язык : English
Default : Да
Forced : Нет
Аудио
Идентификатор : 2
Формат : AC-3
Формат/Информация : Audio Coding 3
Расширение режима : CM (complete main)
Параметр Endianness формата : Big
Идентификатор кодека : A_AC3
Продолжительность : 1 ч. 41 м.
Вид битрейта : Постоянный
Битрейт : 640 Кбит/сек
Каналы : 6 каналов
Расположение каналов : Front: L C R, Side: L R, LFE
Частота : 48,0 КГц
Битовая глубина : 16 бит
Метод сжатия : С потерями
Размер потока : 466 Мбайт (15%)
Язык : Russian
Default : Да
Forced : Да
Текст #1
Идентификатор : 3
Формат : PGS
Режим смешивания : zlib
Идентификатор кодека : S_HDMV/PGS
Идентификатор кодека/Информация : The same subtitle format used on BDs/HD-DVDs
Язык : English
Default : Да
Forced : Нет
Текст #2
Идентификатор : 4
Формат : PGS
Режим смешивания : zlib
Идентификатор кодека : S_HDMV/PGS
Идентификатор кодека/Информация : The same subtitle format used on BDs/HD-DVDs
Язык : English
Default : Нет
Forced : Нет
Текст #3
Идентификатор : 5
Формат : PGS
Режим смешивания : zlib
Идентификатор кодека : S_HDMV/PGS
Идентификатор кодека/Информация : The same subtitle format used on BDs/HD-DVDs
Язык : Russian
Default : Нет
Forced : Нет

Скриншоты

Яндекс.Метрика
Рейтинг@Mail.ru