[ Сегодня на трекере фрилич! Идет свободное скачивание без начисления Download ]

(Шансон) Михаил Круг, Ирина Круг - История любви - 2011, FLAC (image+.cue), lossless

 

Создавать темы 27-Фев-2014 08:08

--Михаил Круг, Ирина Круг - История любви-- Жанр: шансон
Страна-производитель диска: Россия
Год издания: 2011
Издатель (лейбл): Классик компани
Номер по каталогу: CC CD 17/11
Страна: Россия
Аудиокодек: FLAC (*.flac)
Тип рипа: image+.cue
Битрейт аудио: lossless
Продолжительность: 01:00:29
Наличие сканов в содержимом раздачи: да
Треклист:

01.Моя королева - Ирина Круг
02.Только для тебя - Михаил Круг
03.Перелётная птица - Ирина Круг
04.Чай с баранками - Михаил Круг
05.Я прочитаю в глазах твоих - Ирина Круг
06.Белый снег - Михаил Круг
07.В плену твоих рук - Ирина Круг
08.Дорога дальняя - Михаил Круг
09.Напиши мне - Ирина Круг
10.Прогулка с месяцем - Михаил Круг
11.Осеннее кафе - Ирина Круг
12.Синее платьице - Михаил Круг
13.Два одиночества - Ирина Круг
14.Не гаснет огонёк - Михаил Круг
15.Вот и всё - Ирина Круг
16.Лебеди - Михаил Круг

Отчёт EAC

Exact Audio Copy V1.0 beta 3 from 29. August 2011
Отчёт EAC об извлечении, выполненном 12. сентября 2013, 21:12
Various Artists / История любви
Дисковод: PIONEER BD-RW BDR-207 Adapter: 3 ID: 0
Режим чтения : Достоверность
Использование точного потока : Да
Отключение кэша аудио : Да
Использование указателей C2 : Нет
Коррекция смещения при чтении : 667
Способность читать области Lead-in и Lead-out : Нет
Заполнение пропущенных сэмплов тишиной : Да
Удаление блоков с тишиной в начале и конце : Нет
При вычислениях CRC использовались нулевые сэмплы : Да
Интерфейс : Установленный внешний ASPI-интерфейс
Выходной формат : Пользовательский кодировщик
Выбранный битрейт : 896 kBit/s
Качество : Высокий
Добавление ID3-тега : Нет
Утилита сжатия : C:\Program Files (x86)\Exact Audio Copy\Flac\flac.exe
Дополнительные параметры : -V -8 -T "Date=%year%" -T "Genre=%genre%" %source%
TOC извлечённого CD
Трек | Старт | Длительность | Начальный сектор | Конечный сектор
---------------------------------------------------------------------
1 | 0:00.00 | 3:49.63 | 0 | 17237
2 | 3:49.63 | 3:27.61 | 17238 | 32823
3 | 7:17.49 | 4:07.38 | 32824 | 51386
4 | 11:25.12 | 3:31.56 | 51387 | 67267
5 | 14:56.68 | 3:33.37 | 67268 | 83279
6 | 18:30.30 | 3:26.39 | 83280 | 98768
7 | 21:56.69 | 3:47.21 | 98769 | 115814
8 | 25:44.15 | 3:48.02 | 115815 | 132916
9 | 29:32.17 | 3:45.07 | 132917 | 149798
10 | 33:17.24 | 3:24.55 | 149799 | 165153
11 | 36:42.04 | 3:07.35 | 165154 | 179213
12 | 39:49.39 | 4:57.06 | 179214 | 201494
13 | 44:46.45 | 4:07.16 | 201495 | 220035
14 | 48:53.61 | 3:38.43 | 220036 | 236428
15 | 52:32.29 | 4:18.11 | 236429 | 255789
16 | 56:50.40 | 3:38.41 | 255790 | 272180
Характеристики диапазона извлечения и сообщения об ошибках
Выбранный диапазон
Имя файла C:\Users\Public\Music\Разное\2011 - М.Круг, И.Круг - История любви\Various Artists - История любви.wav
Пиковый уровень 97.0 %
Скорость извлечения 7.5 X
Качество диапазона 99.9 %
CRC теста 147A2DFF
CRC копии 147A2DFF
Копирование... OK
Ошибок не произошло
AccurateRip: сводка
Трек 1 отсутствует в базе данных
Трек 2 отсутствует в базе данных
Трек 3 отсутствует в базе данных
Трек 4 отсутствует в базе данных
Трек 5 отсутствует в базе данных
Трек 6 отсутствует в базе данных
Трек 7 отсутствует в базе данных
Трек 8 отсутствует в базе данных
Трек 9 отсутствует в базе данных
Трек 10 отсутствует в базе данных
Трек 11 отсутствует в базе данных
Трек 12 отсутствует в базе данных
Трек 13 отсутствует в базе данных
Трек 14 отсутствует в базе данных
Трек 15 отсутствует в базе данных
Трек 16 отсутствует в базе данных
Ни одного трека нет в базе AccurateRip
Конец отчёта
==== Контрольная сумма отчёта 4FBC3729FABD441960DE192D867C53913818E4B4980DEF096A3FFCE4FA4509E1 ====
Яндекс.Метрика
Рейтинг@Mail.ru