[ Сегодня на трекере фрилич! Идет свободное скачивание без начисления Download ]

Цой - "Кино" (2012) SATRip

 

Создавать темы 26-Фев-2014 22:39

-Цой - "Кино" (2012) SATRip- Название: Цой - "Кино"
Год выпуска: 2012
Жанр: Документальный, Музыка
Описание:
Фильм посвящен Виктору Цою, которому 21 июня 2012 года исполнилось бы 50 лет... Все действие фильма состоит из лайфов – встреч музыкантов с Сашей, воспоминаний о прошлом, разговоров о музыке. К "киношникам" присоединяется Игорь Вдовин, музыкант и композитор, который помогает "Кино" с записью новой песни. "Кино" – это уникальная атмосфера, в которой Виктор Цой состоялся как поэт, певец и композитор. По-настоящему близкие Виктору люди никогда не появлялись в СМИ-пространстве – их мир и при жизни Цоя был закрыт для посторонних. Фильм дает возможность взглянуть со стороны на тех, кто были настоящими друзьями Виктора Цоя.
Продолжительность: 00:44:08
Видео кодек: Xvid
Битрейт видео: 2008 kb/s
Размер кадра: 720 x 368
Качество видео: SATRip
Аудио кодек: AC3 (2 ch)
Битрейт аудио: 192 kb/s CBR

MediaInfo:

Общее
Полное имя : Цой - Кино (2012) SATRip.avi
Формат : AVI
Формат/Информация : Audio Video Interleave
Размер файла : 698 Мбайт
Продолжительность : 44 м.
Общий поток : 2210 Кбит/сек
Название фильма : Цой - Кино 2012
Режиссёр : by Magy®
Жанр : Документальный
Программа кодирования : VirtualDubMod 1.5.10.3 | (build 2550/release)
Формат оригинала/Имя : Home Video
Правообладатель : by volk & UAOnline DVB (torrents.ru)
Примечание : 25.06.2012
Видео
Идентификатор : 0
Формат : MPEG-4 Visual
Профиль формата : Advanced [email protected]
Параметр BVOP формата : 1
Параметр QPel формата : Нет
Параметр GMC формата : Без точки перехода
Параметр матрицы формата : Default (MPEG)
Идентификатор кодека : XVID
Идентификатор кодека/Подсказка : XviD
Продолжительность : 44 м.
Битрейт : 2008 Кбит/сек
Ширина : 720 пикселей
Высота : 368 пикселей
Соотношение сторон : 1,957
Частота кадров : 25,000 кадров/сек
Цветовое пространство : YUV
Субдискретизация насыщенности : 4:2:0
Битовая глубина : 8 бит
Тип развёртки : Прогрессивная
Метод сжатия : С потерями
Бит/(Пиксели*Кадры) : 0.303
Размер потока : 634 Мбайт (91%)
Библиотека кодирования : XviD 1.2.1 (UTC 2008-12-04)
Аудио
Идентификатор : 1
Формат : AC-3
Формат/Информация : Audio Coding 3
Расширение режима : CM (complete main)
Параметр Endianness формата : Big
Идентификатор кодека : 2000
Продолжительность : 44 м.
Вид битрейта : Постоянный
Битрейт : 192 Кбит/сек
Каналы : 2 канала
Расположение каналов : Front: L R
Частота : 48,0 КГц
Битовая глубина : 16 бит
Метод сжатия : С потерями
Размер потока : 60,6 Мбайт (9%)
Выравнивание : Разделение по промежуткам
Продолжительность промежутка : 40 мс. (1,00 видеокадр)
Время предзагрузки промежутка : 500 мс.
Скриншоты:
Яндекс.Метрика
Рейтинг@Mail.ru