[ Сегодня на трекере фрилич! Идет свободное скачивание без начисления Download ]

(Шансон) Любовь Успенская - Золотая коллекция шансона - 2005, FLAC (image+.cue), lossless

 

Создавать темы 26-Фев-2014 21:05

--Любовь Успенская - Золотая коллекция шансона-- Жанр: Шансон
Страна-производитель диска: Украина
Год издания: 2005
Издатель (лейбл): Artur Music
Номер по каталогу: CD 117
Аудиокодек: FLAC (*.flac)
Тип рипа: image+.cue
Битрейт аудио: lossless
Продолжительность: 01:13:23
Наличие сканов в содержимом раздачи: да
Треклист
:

01. Кабриолет [03:52]
02. Карусель [04:36]
03. Кривые зеркала [04:42]
04. Монте-Карло [03:31]
05. Прабабушка [04:13]
06. Банкет [04:08]
07. Пропади ты пропадом [04:24]
08. Хулиганка [04:09]
09. Джигярь [03:37]
10. Россия [05:06]
11. Ещё не поздно [03:53]
12. Найди себя [04:35]
13. Гусарская рулетка [05:05]
14. Прости меня, мама [03:29]
15. Люба-Любонька [03:24]
16. Любимый [03:20]
17. Калина [03:58]
18. Я милого узнаю по походке [03:12]

Отчёт EAC

Отчёт EAC об извлечении, выполненном 23. июля 2012, 20:12
Любовь Успенская /
Дисковод: ASUS DRW-24B3ST Adapter: 0 ID: 1
Режим чтения : Достоверность
Использование точного потока : Да
Отключение кэша аудио : Да
Использование указателей C2 : Нет
Коррекция смещения при чтении : 6
Способность читать области Lead-in и Lead-out : Нет
Заполнение пропущенных сэмплов тишиной : Да
Удаление блоков с тишиной в начале и конце : Нет
При вычислениях CRC использовались нулевые сэмплы : Да
Интерфейс : Встроенный Win32-интерфейс для Win NT/2000
Выходной формат : Пользовательский кодировщик
Выбранный битрейт : 896 kBit/s
Качество : Высокий
Добавление ID3-тэга : Нет
Утилита сжатия : C:\Program Files\FLAC\flac.exe
Дополнительные параметры : -T "DATE=%y" -T "GENRE=%m" -8 -V %s
TOC извлечённого CD
Трек | Старт | Длительность | Начальный сектор | Конечный сектор
---------------------------------------------------------------------
1 | 0:00.00 | 3:52.25 | 0 | 17424
2 | 3:52.25 | 4:36.10 | 17425 | 38134
3 | 8:28.35 | 4:42.32 | 38135 | 59316
4 | 13:10.67 | 3:31.34 | 59317 | 75175
5 | 16:42.26 | 4:13.43 | 75176 | 94193
6 | 20:55.69 | 4:08.21 | 94194 | 112814
7 | 25:04.15 | 4:24.27 | 112815 | 132641
8 | 29:28.42 | 4:09.70 | 132642 | 151386
9 | 33:38.37 | 3:37.34 | 151387 | 167695
10 | 37:15.71 | 5:06.55 | 167696 | 190700
11 | 42:22.51 | 3:53.70 | 190701 | 208245
12 | 46:16.46 | 4:35.62 | 208246 | 228932
13 | 50:52.33 | 5:05.24 | 228933 | 251831
14 | 55:57.57 | 3:29.23 | 251832 | 267529
15 | 59:27.05 | 3:24.58 | 267530 | 282887
16 | 62:51.63 | 3:20.13 | 282888 | 297900
17 | 66:12.01 | 3:58.28 | 297901 | 315778
18 | 70:10.29 | 3:12.69 | 315779 | 330247
Характеристики диапазона извлечения и сообщения об ошибках
Выбранный диапазон
Имя файла D:\trofim\Любовь Успенская - [[ЗОЛОТАЯ КОЛЛЕКЦИЯ ШАНСОНА]].wav
Пиковый уровень 100.0 %
0.4 X
Качество диапазона 100.0 %
CRC теста EF1FE524
CRC копии EF1FE524
Копирование... OK
Ошибок не произошло
AccurateRip: сводка
Трек 1 нет в базе данных
Трек 2 нет в базе данных
Трек 3 нет в базе данных
Трек 4 нет в базе данных
Трек 5 нет в базе данных
Трек 6 нет в базе данных
Трек 7 нет в базе данных
Трек 8 нет в базе данных
Трек 9 нет в базе данных
Трек 10 нет в базе данных
Трек 11 нет в базе данных
Трек 12 нет в базе данных
Трек 13 нет в базе данных
Трек 14 нет в базе данных
Трек 15 нет в базе данных
Трек 16 нет в базе данных
Трек 17 нет в базе данных
Трек 18 нет в базе данных
Ни одного трека нет в базе AccurateRip
Конец отчёта
Яндекс.Метрика
Рейтинг@Mail.ru