(Шансон) Геннадий Жаров - Ещё раз про любовь!? - 2010, FLAC (image+.cue), lossless

 

Создавать темы 26-Фев-2014 21:02

--Геннадий Жаров - Ещё раз про любовь!? The Best--
Жанр: Шансон
Год выпуска диска: 2010
Производитель диска: Россия - (C)&(P) "Master Sound Records LTD."
Аудио кодек: FLAC
Тип рипа: image+.cue
Битрейт аудио: lossless
Продолжительность: 01:09:15
Трэклист:

01. Ушаночка (новая версия) (3:43)
02. Идет братва на Липецк (3:12)
03. Остров (5:24)
04. Крапива (4:26)
05. Телогреечка - 2 (4:03)
06. Ещё раз про любовь!? (3:42)
07. Ушаночка - 2 (3:11)
08. Скамеечка (3:12)
09. Ты - женщина (4:04)
10. Гармошка (3:59)
11. Не жалею... (3:41)
12. Девушка из бухгалтерии (3:53)
13. Селигер (3:52)
14. Снизу недра (3:05)
15. Самолетик, самолет (3:31)
16. Разрезайте меня (3:26)
17. Норма (4:31)
18. Скользкая дорога (4:20)

Отчёт ЕАС

Exact Audio Copy V0.99 prebeta 5 from 4. May 2009
Отчёт EAC об извлечении, выполненном 24. мая 2010, 23:02
Геннадий Жаров / Ещё раз про любовь!?
Дисковод: Optiarc DVD RW AD-5170A Adapter: 0 ID: 1
Режим чтения : Достоверность
Использование точного потока : Да
Отключение кэша аудио : Да
Использование указателей C2 : Нет
Коррекция смещения при чтении : 48
Способность читать области Lead-in и Lead-out : Нет
Заполнение пропущенных сэмплов тишиной : Да
Удаление блоков с тишиной в начале и конце : Нет
При вычислениях CRC использовались нулевые сэмплы : Да
Интерфейс : Встроенный Win32-интерфейс для Win NT/2000
Выходной формат : Внутренние WAV-операции
Формат сэмплов : 44.100 Гц; 16 бит; стерео
TOC извлечённого CD
Трек | Старт | Длительность | Начальный сектор | Конечный сектор
---------------------------------------------------------------------
1 | 0:00.00 | 3:43.36 | 0 | 16760
2 | 3:43.36 | 3:11.66 | 16761 | 31151
3 | 6:55.27 | 5:23.38 | 31152 | 55414
4 | 12:18.65 | 4:26.24 | 55415 | 75388
5 | 16:45.14 | 4:03.01 | 75389 | 93614
6 | 20:48.15 | 3:42.30 | 93615 | 110294
7 | 24:30.45 | 3:10.43 | 110295 | 124587
8 | 27:41.13 | 3:11.61 | 124588 | 138973
9 | 30:52.74 | 4:04.01 | 138974 | 157274
10 | 34:57.00 | 3:58.60 | 157275 | 175184
11 | 38:55.60 | 3:41.07 | 175185 | 191766
12 | 42:36.67 | 3:53.21 | 191767 | 209262
13 | 46:30.13 | 3:51.68 | 209263 | 226655
14 | 50:22.06 | 3:04.39 | 226656 | 240494
15 | 53:26.45 | 3:31.34 | 240495 | 256353
16 | 56:58.04 | 3:25.53 | 256354 | 271781
17 | 60:23.57 | 4:31.36 | 271782 | 292142
18 | 64:55.18 | 4:19.42 | 292143 | 311609
Характеристики диапазона извлечения и сообщения об ошибках
Выбранный диапазон
Имя файла C:\Lossless\Геннадий Жаров - Ещё раз про любовь!\Геннадий Жаров - Ещё раз про любовь!.wav
Пиковый уровень 97.8 %
Качество диапазона 99.8 %
CRC теста 2FA2419E
CRC копии 2FA2419E
Копирование... OK
Ошибок не произошло
AccurateRip: сводка
Трек 1 нет в базе данных
Трек 2 нет в базе данных
Трек 3 нет в базе данных
Трек 4 нет в базе данных
Трек 5 нет в базе данных
Трек 6 нет в базе данных
Трек 7 нет в базе данных
Трек 8 нет в базе данных
Трек 9 нет в базе данных
Трек 10 нет в базе данных
Трек 11 нет в базе данных
Трек 12 нет в базе данных
Трек 13 нет в базе данных
Трек 14 нет в базе данных
Трек 15 нет в базе данных
Трек 16 нет в базе данных
Трек 17 нет в базе данных
Трек 18 нет в базе данных
Ни одного трека нет в базе AccurateRip
Яндекс.Метрика
Рейтинг@Mail.ru