[ Сегодня на трекере фрилич! Идет свободное скачивание без начисления Download ]

Освенцим / Auschwitz (Уве Болл / Uwe Boll) [2010 г., драма, HDRip] MVO + Original (Ger)

 

Создавать темы 26-Фев-2014 17:12

--Освенцим / Auschwitz-- Производство: Германия, Канада, Boll Kino Beteiligungs GmbH & Co. KG
Год выпуска: 2010 г.
Жанр: драма
Продолжительность: 01:10:56--Мировая премьера: 13 февраля 2011
Релиз на DVD: 6 февраля 2014, «CP Дистрибуция»--Перевод: Профессиональный (многоголосый закадровый)
Оригинальный аудиопоток: немецкий--Режиссер: Уве Болл / Uwe Boll--В ролях: Авнер Айзендорф, Арвед Бирнбаум, Уве Болл, Ник Голдман, Фридхельм Гертнер, Максимилиан Гэртнер, Харольд Леви, Алексис Ваверка--Описание: Спустя 60 лет после освобождения от нацизма невообразимая история о самом ужасном месте на планете наконец раскрыта. В 1940-ом году на территории Польши, близ города Освенцим, фашистами был сооружен крупный концентрационный лагерь. Уже через год в нем убили первого человека. Так заработала крупнейшая фашистская «фабрика смерти», в которой за несколько лет ее существования различными способами было умерщвлено более миллиона человек – евреев, попавших в плен красноармейцев, и просто неблагонадежных элементов. В фильме показан один день из «жизни» лагеря – прибытие новой партии заключенных, их сортировка, отправка «лишних», не приспособленных к работам людей сначала в газовую камеру, а затем и в печь крематория.--Качество видео: HDRip
Контейнер: AVI
Видео кодек: XviD
Аудио кодек: AC3
Видео: 720x304 (2.37:1), 25 fps, XviD build 50 ~2037 kbps avg, 0.37 bit/pixel
Аудио 1: 48 kHz, AC3 Dolby Digital, 3/2 (L,C,R,l,r) + LFE ch, ~256 kbps RUS
Аудио 2: 48 kHz, AC3 Dolby Digital, 2/0 (L,R) ch, ~448 kbps GER
Cубтитры: Отсутствуют

Media Info

Общее
Полное имя : H:\Torrent2\Osvenciym.2011.P.HDRip.1400Mb.avi
Формат : AVI
Формат/Информация : Audio Video Interleave
Размер файла : 1,37 Гбайт
Продолжительность : 1 ч. 10 м.
Общий поток : 2755 Кбит/сек
Программа кодирования : VirtualDubMod 1.5.10.2 (build 2540/release)
Библиотека кодирования : VirtualDubMod build 2540/release
Видео
Идентификатор : 0
Формат : MPEG-4 Visual
Профиль формата : Advanced [email protected]
Параметр BVOP формата : 2
Параметр QPel формата : Нет
Параметр GMC формата : Без точки перехода
Параметр матрицы формата : Default (MPEG)
Идентификатор кодека : XVID
Идентификатор кодека/Подсказка : XviD
Продолжительность : 1 ч. 10 м.
Битрейт : 2037 Кбит/сек
Ширина : 720 пикселей
Высота : 304 пикселя
Соотношение сторон : 2,35:1
Частота кадров : 25,000 кадров/сек
Цветовое пространство : YUV
Субдискретизация насыщенности : 4:2:0
Битовая глубина : 8 бит
Тип развёртки : Прогрессивная
Метод сжатия : С потерями
Бит/(Пиксели*Кадры) : 0.372
Размер потока : 1,01 Гбайт (74%)
Библиотека кодирования : XviD 1.2.1 (UTC 2008-12-04)
Аудио #1
Идентификатор : 1
Формат : AC-3
Формат/Информация : Audio Coding 3
Расширение режима : CM (complete main)
Параметр Endianness формата : Big
Идентификатор кодека : 2000
Продолжительность : 1 ч. 10 м.
Вид битрейта : Постоянный
Битрейт : 256 Кбит/сек
Каналы : 6 каналов
Расположение каналов : Front: L C R, Side: L R, LFE
Частота : 48,0 КГц
Битовая глубина : 16 бит
Метод сжатия : С потерями
Размер потока : 130 Мбайт (9%)
Выравнивание : Разделение по промежуткам
Продолжительность промежутка : 40 мс. (1,00 видеокадр)
Время предзагрузки промежутка : 500 мс.
Аудио #2
Идентификатор : 2
Формат : AC-3
Формат/Информация : Audio Coding 3
Расширение режима : CM (complete main)
Параметр Endianness формата : Big
Идентификатор кодека : 2000
Продолжительность : 1 ч. 10 м.
Вид битрейта : Постоянный
Битрейт : 448 Кбит/сек
Каналы : 2 канала
Расположение каналов : Front: L R
Частота : 48,0 КГц
Битовая глубина : 16 бит
Метод сжатия : С потерями
Размер потока : 227 Мбайт (16%)
Выравнивание : Разделение по промежуткам
Продолжительность промежутка : 40 мс. (1,00 видеокадр)
Время предзагрузки промежутка : 500 мс.

Скриншоты

Трейлер
Яндекс.Метрика
Рейтинг@Mail.ru