[ Сегодня на трекере фрилич! Идет свободное скачивание без начисления Download ]

Одна / Solo (Исаак Крэйвит / Isaac Cravit) [2013, Канада, триллер, WEB-DLRip] DVO (den904 & DeadSno) + Original Eng

 

Создавать темы 26-Фев-2014 02:41

Одна / Solo
Страна: Канада
Жанр: триллер
Год выпуска: 2013
Продолжительность: 01:23:02
Перевод: Любительский (двухголосый закадровый) den904 & DeadSno
Cубтитры: нет
Оригинальная аудиодорожка: английский
Режиссер: Исаак Крэйвит / Isaac Cravit
В ролях: Энни Кларк, Дэниэль Кэш, Стивен Лав, Ричард Кларкин, Алисса Каприотти
Описание: Страдающая от депрессии, после гибели своей сестры, Джиллиан, чтобы развеяться и забыться, отправляется в лагерь "Кайя" - вожатой. В традицию лагеря входит обязательное посвящение в вожатые. Ритуал посвящения прост: нужно провести сутки одному, в лесу, на близлежащем безлюдном острове. Зав лагерем отвозит Джиллиан на лодке на остров и оставляет в твердой уверенности, что на острове никого нет. Но Джиллиан придется столкнуться не только с собственными кошмарами, но и кошмарами кого-то, кого преследует дурное деяние из прошлого.
Качество видео: WEB-DLRip
Формат видео: AVI
Видео: XviD, 1841 kb/s, 720x304, 23,976 кадра/сек
Аудио: Russian: МР3, 128 kb/s (2 ch), 48,0 КГц
Аудио 2: English: AC3, 384 kb/s (6 ch), 48,0 КГц

MediaInfo

I:\Одна\Odna.L2.WEB-DLRip.1400MB.avi
General
Complete name : I:\Одна\Odna.L2.WEB-DLRip.1400MB.avi
Format : AVI
Format/Info : Audio Video Interleave
File size : 1.37 GiB
Duration : 1h 23mn
Overall bit rate : 2 366 Kbps
Writing application : VirtualDubMod 1.5.10.2 (build 2542/release)
Writing library : VirtualDubMod build 2542/release
Video #0
ID : 0
Format : MPEG-4 Visual
Format profile : Advanced [email protected]
Format settings, BVOP : 2
Format settings, QPel : No
Format settings, GMC : No warppoints
Format settings, Matrix : Default (H.263)
Codec ID : XVID
Codec ID/Hint : XviD
Duration : 1h 23mn
Bit rate : 1 841 Kbps
Width : 720 pixels
Height : 304 pixels
Display aspect ratio : 2.35:1
Frame rate : 23.976 fps
Color space : YUV
Chroma subsampling : 4:2:0
Bit depth : 8 bits
Scan type : Progressive
Compression mode : Lossy
Bits/(Pixel*Frame) : 0.351
Stream size : 1.07 GiB (78%)
Writing library : XviD 1.2.1 (UTC 2008-12-04)
Audio #1
ID : 1
Format : MPEG Audio
Format version : Version 1
Format profile : Layer 3
Mode : Joint stereo
Mode extension : MS Stereo
Codec ID : 55
Codec ID/Hint : MP3
Duration : 1h 23mn
Bit rate mode : Constant
Bit rate : 128 Kbps
Channel count : 2 channels
Sampling rate : 48.0 KHz
Compression mode : Lossy
Stream size : 76.0 MiB (5%)
Alignment : Aligned on interleaves
Interleave, duration : 42 ms (1.00 video frame)
Interleave, preload duration : 504 ms
Writing library : LAME3.99r
Encoding settings : -m j -V 4 -q 2 -lowpass 17 -b 128
Audio #2
ID : 2
Format : AC-3
Format/Info : Audio Coding 3
Mode extension : CM (complete main)
Format settings, Endianness : Big
Codec ID : 2000
Duration : 1h 23mn
Bit rate mode : Constant
Bit rate : 384 Kbps
Channel count : 6 channels
Channel positions : Front: L C R, Side: L R, LFE
Sampling rate : 48.0 KHz
Bit depth : 16 bits
Compression mode : Lossy
Stream size : 228 MiB (16%)
Alignment : Split accross interleaves
Interleave, duration : 42 ms (1.00 video frame)
Interleave, preload duration : 500 ms

Скриншоты

Яндекс.Метрика
Рейтинг@Mail.ru