Пугало / Scarecrow (Шелдон Уилсон / Sheldon Wilson) [2013, США, Канада, Ужасы,Фантастика, HDRip] VO (Асинхрон) + Original Eng

 

Создавать темы 26-Фев-2014 02:34

--Пугало / Scarecrow-- Страна: США, Канада
Жанр: Ужасы,Фантастика
Год выпуска: 2013
Продолжительность: 01:25:57-Перевод: Одноголосый закадровый |Асинхрон|
Cубтитры: нет
Оригинальная аудиодорожка: английский-Режиссер: Шелдон Уилсон / Sheldon Wilson-В ролях: Лейси Чаберт, Робин Данн, Ричард Хэрмон, Бриттни Уилсон, Николь Муньос, Джулия Максвелл, Айэйн Белчер, Джерри Вассерман, Карло Маркс, Лэни МакОли..
Описание: Шестеро учеников, отбывающих наказание выходного дня за совершенный в школе проступок, прибывают на ферму вместе со своим учителем, чтобы перевести в город соломенное чучело на место празднования ежегодного фестиваля, посвящённого ему. Но то, что должно было быть простой задачей, оборачивается катастрофой. Старая городская легенда, которой пугали первоклассников, оказывается не выдумкой.- -Качество видео: HDRip
Формат видео: AVI
Видео: XviD, 720x400, 25fps, 1884kbps
Аудио: AC3, 48000Hz, 2ch, 192kbps [Russian]
Аудио 2: AC3, 48000Hz, 2ch, 192kbps [English]-

MediaInfo

General
Complete name : F:\BD torrent\DVDRIPS\Pugalo.2013.L1.HDRip.1400Mb.avi
Format : AVI
Format/Info : Audio Video Interleave
File size : 1.37 GiB
Duration : 1h 25mn
Overall bit rate : 2 282 Kbps
Writing application : VirtualDubMod 1.5.10.3 | www.virtualdub-fr.org || (build 2550/release)
Writing library : VirtualDubMod build 2550/release
Video
ID : 0
Format : MPEG-4 Visual
Format profile : Advanced [email protected]
Format settings, BVOP : 1
Format settings, QPel : No
Format settings, GMC : No warppoints
Format settings, Matrix : Custom
Codec ID : XVID
Codec ID/Hint : XviD
Duration : 1h 25mn
Bit rate : 1 884 Kbps
Width : 720 pixels
Height : 400 pixels
Display aspect ratio : 16:9
Frame rate : 24.000 fps
Color space : YUV
Chroma subsampling : 4:2:0
Bit depth : 8 bits
Scan type : Progressive
Compression mode : Lossy
Bits/(Pixel*Frame) : 0.273
Stream size : 1.13 GiB (83%)
Writing library : XviD 1.2.1 (UTC 2008-12-04)
Audio #1
ID : 1
Format : AC-3
Format/Info : Audio Coding 3
Mode extension : CM (complete main)
Format settings, : Big
Codec ID : 2000
Duration : 1h 25mn
Bit rate mode : Constant
Bit rate : 192 Kbps
Channel(s) : 2 channels
Channel positions : Front: L R
Sampling rate : 48.0 KHz
Bit depth : 16 bits
Compression mode : Lossy
Stream size : 118 MiB (8%)
Alignment : Split accross interleaves
Interleave, duration : 42 ms (1.00 video frame)
Interleave, preload duration : 500 ms
Audio #2
ID : 2
Format : AC-3
Format/Info : Audio Coding 3
Mode extension : CM (complete main)
Format settings, Endianness : Big
Codec ID : 2000
Duration : 1h 25mn
Bit rate mode : Constant
Bit rate : 192 Kbps
Channel(s) : 2 channels
Channel positions : Front: L R
Sampling rate : 48.0 KHz
Bit depth : 16 bits
Compression mode : Lossy
Stream size : 118 MiB (8%)
Alignment : Split accross interleaves
Interleave, duration : 42 ms (1.00 video frame)
Interleave, preload duration : 500 ms

Скриншоты


Яндекс.Метрика
Рейтинг@Mail.ru