[ Сегодня на трекере фрилич! Идет свободное скачивание без начисления Download ]

У всех есть план / Todos tenemos un plan / Everybody Has a Plan (Ана Питербарг / Ana Piterbarg) [2012, Аргентина, Испания, Германия, Драма, криминал, HDRip] VO (den904)

 

Создавать темы 26-Фев-2014 02:29

У всех есть план / Todos tenemos un plan / Everybody Has a Plan«Lies have a life of their own»- Страна: Аргентина, Испания, Германия
Жанр: Драма, криминал
Год выпуска: 2012
Продолжительность: 01:58:06-Перевод: Одноголосый закадровый [den904]
Cубтитры: нет-Режиссер: Ана Питербарг / Ana Piterbarg-В ролях: Вигго Мортенсен, Соледад Вильямиль, Дэниэл Фанего, Хавьер Годино, София Гала, Оскар Алегре, Хоакин Дэниэл, Каролина Роман-Описание: Агустин узнает о смерти своего брата-близнеца Педро и решает присвоить себе его жизнь. Но он не догадывается, какое криминальное прошлое было у его брата…-Sample | IMDB | КиноПоиск-Тип релиза: HDRip [исх. BDRip 1080p]
Формат видео: AVI-Видео: 720x384 (1.88:1), 23.976 fps, XviD build 50, 1321 kbps avg, 0.20 bit/pixel
Аудио: 48 kHz, AC3 Dolby Digital, 3/2 (L,C,R,l,r) + LFE ch, 448.00 kbps avg [Russian_VO]-

MediaInfo

General
Complete name : E:\Мои раздачи\Todos tenemos un plan_HDRip_RG_All_Films.avi
Format : AVI
Format/Info : Audio Video Interleave
File size : 1.47 GiB
Duration : 1h 58mn
Overall bit rate : 1 779 Kbps
Writing application : VirtualDubMod 1.6.0.0 SURROUND (build 2560/release)
Writing library : VirtualDubMod build 2560/release
Video
ID : 0
Format : MPEG-4 Visual
Format profile : Advanced [email protected]
Format settings, BVOP : Yes
Format settings, QPel : No
Format settings, GMC : No warppoints
Format settings, Matrix : Custom
Codec ID : XVID
Codec ID/Hint : XviD
Duration : 1h 58mn
Bit rate : 1 322 Kbps
Width : 720 pixels
Height : 384 pixels
Display aspect ratio : 1.875
Frame rate : 23.976 fps
Color space : YUV
Chroma subsampling : 4:2:0
Bit depth : 8 bits
Scan type : Progressive
Compression mode : Lossy
Bits/(Pixel*Frame) : 0.199
Stream size : 1.09 GiB (74%)
Writing library : XviD 1.2.1 (UTC 2008-12-04)
Audio
ID : 1
Format : AC-3
Format/Info : Audio Coding 3
Mode extension : CM (complete main)
Codec ID : 2000
Duration : 1h 58mn
Bit rate mode : Constant
Bit rate : 448 Kbps
Channel(s) : 6 channels
Channel positions : Front: L C R, Side: L R, LFE
Sampling rate : 48.0 KHz
Bit depth : 16 bits
Compression mode : Lossy
Stream size : 378 MiB (25%)
Alignment : Split accross interleaves
Interleave, duration : 42 ms (1.00 video frame)
Interleave, preload duration : 500 ms

Скриншоты

Яндекс.Метрика
Рейтинг@Mail.ru