ХХII Зимние Олимпийские Игры Сочи 2014 / Хоккей на льду, Матч за золотую медаль / Мужчины / Швеция - Канада (Спорт 1 HD - Александр Ткачев, Олег Браташ) [23.02.2014 г., HDTVRip, MKV, 720p, RU]

 

Создавать темы 25-Фев-2014 10:28

Хоккей на льду, Матч за золотую медаль / Мужчины
Швеция - Канада
Жаркие. Зимние. Твои.Официальный сайт "Сочи 2014" -Год выпуска: 19.02.2014 г.
Вид спорта: Хоккей на льду
Участники: Швеция - Канада (Мужчины)
Продолжительность: 01:47:26
Комментатор: Александр Ткачев, Олег Браташ
Язык комментариев: русский
Автор рипа / записи: Striker-ТВ Канал: -Арена: Большой (Сочи, Россия) 23 февраля 2014 года, воскресенье. 16:00 МСК-Качество видео: HDTVRip
Контейнер: MKV
Видео кодек: H.264
Аудио кодек: AC3
Видео: 4500 Кбит/сек; 1280*720 (16:9); в 50,000 кадра/сек; AVC; 0.098 Бит/(Пиксели*Кадры)
Аудио: 192 Кбит/сек; 48,0 КГц; 16 бит; 2 каналоа; АС-3

Составы команд

Швеция: Хенрик Лундквист (Юнас Энрот), Джонатан Эрикссон — Никлас Кронвалль — Маркус Крюгер — Джимми Эрикссон — Карл Хагелин, Никлас Яльмарссон — Джонни Одуйя — Якоб Сильверберг — Маркус Юханссон — Габриэль Ландеског, Александер Эдлер — Эрик Карлссон — Даниэль Альфредссон — Патрик Берглунд — Александер Стин, Оливер Экман-Ларссон — Хенрик Таллиндер — Луи Эрикссон — Даниэль Седин — Густав Нюквист.
Главный тренер: Пер Мортс.-Канада: Кэри Прайс (Роберто Луонго), Данкан Кит — Ши Уэбер — Крис Куниц — Патрис Бержерон — Сидни Кросби, Дрю Даути — Марк-Эдуар Власич — Райан Гецлаф — Джейми Бенн — Кори Перри, Джей Боумистер — Алекс Пьетранджело — Патрик Марло — Джонатан Тэйвз — Джефф Картер, Дэн Хэмьюс — Мэтт Дюшейн — Патрик Шарп — Мартин Сан-Луи — Рик Нэш.
Главный тренер: Майк Бэбкок.-Главный судья: Брэд Майер (США), Келли Сазерлэнд (Канада).

Media Info

Общее
Уникальный идентификатор : 41627163388285015063840147918955152607 (0x1F51199CAD1E90D65F2562F3961704DF)
Формат : Matroska
Версия формата : Version 2
Размер файла : 3,52 Гбайт
Продолжительность : 1 ч. 47 м.
Режим общего битрейта : Переменный
Общий поток : 4693 Кбит/сек
Дата кодирования : UTC 2014-02-23 23:12:22
Программа кодирования : TMPGEnc Video Mastering Works 5 Version. 5.0.6.38
Библиотека кодирования : TMPGEnc Video Mastering Works 5 Version. 5.0.6.38
Видео
Идентификатор : 2
Формат : AVC
Формат/Информация : Advanced Video Codec
Профиль формата : [email protected]
Параметр CABAC формата : Да
Параметр ReFrames формата : 5 кадров
Идентификатор кодека : V_MPEG4/ISO/AVC
Продолжительность : 1 ч. 47 м.
Вид битрейта : Переменный
Битрейт : 4500 Кбит/сек
Максимальный битрейт : 8000 Кбит/сек
Ширина : 1280 пикселей
Высота : 720 пикселей
Соотношение сторон : 16:9
Режим частоты кадров : Постоянный
Частота кадров : 50,000 кадров/сек
Стандарт вещания : NTSC
Цветовое пространство : YUV
Субдискретизация насыщенности : 4:2:0
Битовая глубина : 8 бит
Тип развёртки : Прогрессивная
Бит/(Пиксели*Кадры) : 0.098
Размер потока : 3,31 Гбайт (94%)
Библиотека кодирования : x264 core 114
Настройки программы : cabac=1 / ref=5 / deblock=1:0:0 / analyse=0x3:0x113 / me=umh / subme=8 / psy=1 / psy_rd=1.00:0.00 / mixed_ref=1 / me_range=16 / chroma_me=1 / trellis=1 / 8x8dct=1 / cqm=2 / deadzone=21,11 / fast_pskip=1 / chroma_qp_offset=-2 / threads=12 / sliced_threads=0 / slices=1 / nr=0 / decimate=1 / interlaced=0 / constrained_intra=0 / bframes=5 / b_pyramid=0 / b_adapt=2 / b_bias=0 / direct=3 / weightb=1 / open_gop=0 / weightp=2 / keyint=250 / keyint_min=25 / scenecut=40 / intra_refresh=0 / rc_lookahead=50 / rc=abr / mbtree=1 / bitrate=4500 / ratetol=1.0 / qcomp=0.60 / qpmin=3 / qpmax=69 / qpstep=4 / vbv_maxrate=8000 / vbv_bufsize=7995 / nal_hrd=vbr / ip_ratio=1.40 / aq=1:1.00
Default : Да
Forced : Нет
Основные цвета : BT.709
Характеристики трансфера : BT.709
Коэффициенты матрицы : BT.709
Аудио
Идентификатор : 1
Формат : AC-3
Формат/Информация : Audio Coding 3
Расширение режима : CM (complete main)
Параметр Endianness формата : Big
Идентификатор кодека : A_AC3
Продолжительность : 1 ч. 47 м.
Вид битрейта : Постоянный
Битрейт : 192 Кбит/сек
Каналы : 2 канала
Расположение каналов : Front: L R
Частота : 48,0 КГц
Битовая глубина : 16 бит
Метод сжатия : С потерями
Размер потока : 148 Мбайт (4%)
Default : Да
Forced : Нет

Скриншоты

Яндекс.Метрика
Рейтинг@Mail.ru