Храброе сердце / Ritter Rost - Eisenhart und voll verbeult (Томас Боденштайн, Хьюберт Вейланд / Thomas Bodenstein, Hubert Weiland) [2013 г., мультфильм, приключения, семейный, HDRip] Dub [Чистый звук]

 

Создавать темы 25-Фев-2014 04:31

--Храброе сердце / Ritter Rost - Eisenhart und voll verbeult--«Приключения в тридесятом королевстве»- -Производство: Германия, Caligari Film- und Fernsehproduktions GmbH, Universum Film (UFA), Zweites Deutsches Fernsehen (ZDF)
Год выпуска: 2013 г.
Жанр: мультфильм, приключения, семейный
Продолжительность: 01:23:58--Мировая премьера: 10 января 2013
Российская премьера: 30 января 2014, «Наше Кино»--Перевод: Профессиональный (полное дублирование) [Чистый звук]--Режиссер: Томас Боденштайн, Хьюберт Вейланд / Thomas Bodenstein, Hubert Weiland--В ролях: Рик Каваниан, Каролин Кебекус, Кристоф Мария Хербст, Том Герхардт, Детлеф Редингер, Дастин Земмельрогге, Хартмут Нойгебауер, Ульрих Фрэнк, Пьер Питерс-Арнольдс, Анита Хёфер--Описание: В одном сказочном королевстве, где есть мудрый король, прекрасная принцесса и храбрый рыцарь, как это всегда бывает в сказках, появился хитрый и коварный злодей, задумавший стать новым правителем. Единственный кто может помешать его планам — находчивый рыцарь Расти. Пусть пока у него не все получается, и многие не воспринимают его всерьез, он обязательно станет настоящим героем и вместе со своими верными друзьями спасет королевство.-- --Качество видео: HDRip
Контейнер: AVI
Видео кодек: XviD
Аудио кодек: AC3
Видео: 720x400 (1.80:1), 23.976 fps, XviD build 50 ~1936 kbps avg, 0.28 bit/pixel
Аудио: 48 kHz, AC3 Dolby Digital, 2/0 (L,R) ch, ~384 kbps
Cубтитры: отсутствуют
-

Media Info

Общее
Полное имя : H:\Torrent2\Hrabroe.Serdce.2013.D.HDRip.1400MB_[pirat.ca].avi
Формат : AVI
Формат/Информация : Audio Video Interleave
Размер файла : 1,37 Гбайт
Продолжительность : 1 ч. 23 м.
Общий поток : 2330 Кбит/сек
Программа кодирования : VirtualDubMod 1.5.10.2 (build 2540/release)
Библиотека кодирования : VirtualDubMod build 2540/release
Видео
Идентификатор : 0
Формат : MPEG-4 Visual
Профиль формата : Advanced [email protected]
Параметр BVOP формата : 2
Параметр QPel формата : Нет
Параметр GMC формата : Без точки перехода
Параметр матрицы формата : Default (MPEG)
Идентификатор кодека : XVID
Идентификатор кодека/Подсказка : XviD
Продолжительность : 1 ч. 23 м.
Битрейт : 1937 Кбит/сек
Ширина : 720 пикселей
Высота : 400 пикселей
Соотношение сторон : 16:9
Частота кадров : 23,976 кадра/сек
Цветовое пространство : YUV
Субдискретизация насыщенности : 4:2:0
Битовая глубина : 8 бит
Тип развёртки : Прогрессивная
Метод сжатия : С потерями
Бит/(Пиксели*Кадры) : 0.280
Размер потока : 1,14 Гбайт (83%)
Библиотека кодирования : XviD 1.2.1 (UTC 2008-12-04)
Аудио
Идентификатор : 1
Формат : AC-3
Формат/Информация : Audio Coding 3
Расширение режима : CM (complete main)
Параметр Endianness формата : Big
Идентификатор кодека : 2000
Продолжительность : 1 ч. 23 м.
Вид битрейта : Постоянный
Битрейт : 384 Кбит/сек
Каналы : 2 канала
Расположение каналов : Front: L R
Частота : 48,0 КГц
Битовая глубина : 16 бит
Метод сжатия : С потерями
Размер потока : 231 Мбайт (16%)
Выравнивание : Разделение по промежуткам
Продолжительность промежутка : 42 мс. (1,00 видеокадр)
Время предзагрузки промежутка : 500 мс.

Скриншоты

Трейлер
Яндекс.Метрика
Рейтинг@Mail.ru