Discovery: Северная Америка / North America [серии 1-7 из 7] [2013 г., Документальный, научно-познавательный, HDTVRip]

 

Создавать темы 10-Окт-2013 04:48

Discovery: Северная Америка / North America [серии 1-7 из 7]
Год выпуска: 2013 г.
Страна: США, Великобритания, Discovery Channel, Silverback Films
Жанр: Документальный, научно-познавательный
Продолжительность: 7x~00:43:30
Перевод: Студийный (одноголосый закадровый) - "Кириллица", Давид Петросян
Cубтитры: нет
Режиссер: Джеймс Мэнфулл, Сара Касс, Макс Саломон
Участники: Том Селлек, Justin Anderson, Адам Чэпман, Хув Корди, Alicia Decina, Mark Emery, Ник Гай, Peter Knamiller, Нэппи Ниман, Stuart Robinson
Дополнительная информация: Русские дорожки взяты из SatRip и адаптированы для данной версии. За предоставленные дорожки большое спасибо Domonto
Качество видео: HDTVRip
Формат видео: AVI
Видео кодек: XviD
Аудио кодек: AC3
Видео: 720х400 25.00fps 1950kbps
Аудио: AC3 2ch, 48kHz, 192 kbps
Описание: Первая самостоятельно подготовленная естественнонаучная программа Discovery «Северная Америка» - это результат путешествий по континенту в течение трех лет от ледяной Аляски до пышных лесов Белиза, от покрытых снегами Скалистых гор до пустынь юго-запада Америки. Она рассказывает о том, что закон «выживает сильнейший» царит на этом огромном континенте посреди опасных территорий и сурового климата.
Список серий:

01. Родился непокорным / Born to Be Wild

В самой отдаленной точке континента находятся Алеутские острова - своеобразный мост от Аляски до Америки. 20000 лет назад эта цепь вулканов позволила доисторическим животным и человеку мигрировать сюда из Азии. Морские скалы - это все, что от них осталось. Бесплодная земля клиффов и опасные берега отрезаны от большой земли. Громадные гризли патрулируют берег, которые после зимней спячки утратили 40% своего веса.

02. Спрятаться негде / No Place to Hide

Безжалостное, непредсказуемое море травы. Поле битвы для хищников, ведущих охоту. Это владения дикой природы. Это территория Северной Америки, самое сердце континента. Огромные равнинные просторы, где бродят могущественные млекопитающие и собираются миллионы мигрантов. Экстремумы каждого сезона способны кардинально менять жизнь. И второго шанса здесь никому не предоставляется. Если одним лучше удерживать занимаемые позиции, то другим - бежать со всех ног.

03. Научись с детства, иначе погибнешь / Learn Young or Die

От края до края Северной Америки, от глухих лесов до высочайших вершин - загадочный мир. В этом мире уроки жизни начинаются с самого рождения. От первых шагов и до поиска пары. Делая запасы и используя любую возможность, которую только можно найти. Когда наступит пора решающего испытания, уроки, которые усвоены в молодости, могут решить все в борьбе за выживание.

04. Граница дикой природы / Savage Edge

Побережье Северной Америки - дикий край и волшебный мир, где грация и красота природы порождает жизнь - непостижимую и опасную. Под водой ведется жестокая война за выживание. Вдоль диких берегов континента не прекращается борьба. Животные, рыбы и птицы - все сражаются за свое место в этом суровом, диком краю.

05. Изгнанники и скелеты / Outlaws and Skeletons

Пустыня - прожженная солнцем и застывшая во времени. Живущие здесь должны быть крайне изобретательны, чтобы выдержать жару и как-то выжить. Месяцы, когда всего слишком мало. И редкие моменты, когда всего слишком много. Выживание зависит от того, поймаешь ли ты момент и свой мимолетный шанс. Это критический испытательный полигон. Мир крайностей, где только самые цепкие добьются успеха. Они покоряют суровые земли Северной Америки

06. Тайны Дикой природы / Revealed

Мы отправимся на границу с Канадой и увидим горных баранов, а также погрузимся в ледяные воды с китом и его малышом, которые в Тихом океане прячутся от хищников. Мы также увидим, как на пляжах Коста-Рики морские черепахи изо всех сил стремятся избежать когтей голодных ягуаров, при этом стараясь отложить яйца.

07. Топ 10 / Top 10

Северная Америка - земля неукрощенной дикой природы, кишащая жизнью. Но какие-же области подвергают в наибольший трепет? Зрители Discovery Channel попросили проголосовать за свои любимые, кружащие голову и захватывающие дух, места Северной Америки. И вот что они выбрали: это невероятный подбор ландшафтов, которые искушают самых безрассудных и провоцируют их на достижение новых высот. Это лучшие из лучших, топ-10 обязательных для посещения районов этого несравненного континента.

Скриншоты


MediaInfo:

Формат : AVI
Формат/Информация : Audio Video Interleave
Размер файла : 659 Мбайт
Продолжительность : 42 м.
Общий поток : 2150 Кбит/сек
Программа кодирования : VirtualDubMod 1.5.10.3 | www.virtualdub-fr.org || (build 2550/release)
Библиотека кодирования : VirtualDubMod build 2550/release
Видео
Идентификатор : 0
Формат : MPEG-4 Visual
Профиль формата : Advanced [email protected]
Параметр BVOP формата : 2
Параметр QPel формата : Нет
Параметр GMC формата : Без точки перехода
Параметр матрицы формата : Default (H.263)
Идентификатор кодека : XVID
Идентификатор кодека/Подсказка : XviD
Продолжительность : 42 м.
Битрейт : 1948 Кбит/сек
Ширина : 720 пикселей
Высота : 400 пикселей
Соотношение сторон : 16:9
Частота кадров : 23,976 кадра/сек
Цветовое пространство : YUV
Субдискретизация насыщенности : 4:2:0
Битовая глубина : 8 бит
Тип развёртки : Прогрессивная
Метод сжатия : С потерями
Бит/(Пиксели*Кадры) : 0.282
Размер потока : 597 Мбайт (91%)
Библиотека кодирования : XviD 1.2.1 (UTC 2008-12-04)
Аудио
Идентификатор : 1
Формат : AC-3
Формат/Информация : Audio Coding 3
Расширение режима : CM (complete main)
Идентификатор кодека : 2000
Продолжительность : 42 м.
Вид битрейта : Постоянный
Битрейт : 192 Кбит/сек
Каналы : 2 канала
Расположение каналов : Front: L R
Частота : 48,0 КГц
Битовая глубина : 16 бит
Метод сжатия : С потерями
Размер потока : 58,9 Мбайт (9%)
Выравнивание : Разделение по промежуткам
Продолжительность промежутка : 42 мс. (1,00 видеокадр)
Время предзагрузки промежутка : 500 мс.
Общее
Полное имя : D:\A-raz\North America_HD_[bittracker]\s01e02_No Place To Hide.avi
Формат : AVI
Формат/Информация : Audio Video Interleave
Размер файла : 667 Мбайт
Продолжительность : 43 м.
Общий поток : 2151 Кбит/сек
Программа кодирования : VirtualDubMod 1.5.10.3 | www.virtualdub-fr.org || (build 2550/release)
Библиотека кодирования : VirtualDubMod build 2550/release
Видео
Идентификатор : 0
Формат : MPEG-4 Visual
Профиль формата : Advanced [email protected]
Параметр BVOP формата : 2
Параметр QPel формата : Нет
Параметр GMC формата : Без точки перехода
Параметр матрицы формата : Default (H.263)
Идентификатор кодека : XVID
Идентификатор кодека/Подсказка : XviD
Продолжительность : 43 м.
Битрейт : 1950 Кбит/сек
Ширина : 720 пикселей
Высота : 400 пикселей
Соотношение сторон : 16:9
Частота кадров : 23,976 кадра/сек
Цветовое пространство : YUV
Субдискретизация насыщенности : 4:2:0
Битовая глубина : 8 бит
Тип развёртки : Прогрессивная
Метод сжатия : С потерями
Бит/(Пиксели*Кадры) : 0.282
Размер потока : 605 Мбайт (91%)
Библиотека кодирования : XviD 1.2.1 (UTC 2008-12-04)
Аудио
Идентификатор : 1
Формат : AC-3
Формат/Информация : Audio Coding 3
Расширение режима : CM (complete main)
Идентификатор кодека : 2000
Продолжительность : 43 м.
Вид битрейта : Постоянный
Битрейт : 192 Кбит/сек
Каналы : 2 канала
Расположение каналов : Front: L R
Частота : 48,0 КГц
Битовая глубина : 16 бит
Метод сжатия : С потерями
Размер потока : 59,6 Мбайт (9%)
Выравнивание : Разделение по промежуткам
Продолжительность промежутка : 42 мс. (1,00 видеокадр)
Время предзагрузки промежутка : 500 мс.
Общее
Полное имя : D:\A-raz\North America_HD_[bittracker]\s01e03_Learn Young or Die.avi
Формат : AVI
Формат/Информация : Audio Video Interleave
Размер файла : 669 Мбайт
Продолжительность : 43 м.
Общий поток : 2151 Кбит/сек
Программа кодирования : VirtualDubMod 1.5.10.3 | www.virtualdub-fr.org || (build 2550/release)
Библиотека кодирования : VirtualDubMod build 2550/release
Видео
Идентификатор : 0
Формат : MPEG-4 Visual
Профиль формата : Advanced [email protected]
Параметр BVOP формата : 2
Параметр QPel формата : Нет
Параметр GMC формата : Без точки перехода
Параметр матрицы формата : Default (H.263)
Идентификатор кодека : XVID
Идентификатор кодека/Подсказка : XviD
Продолжительность : 43 м.
Битрейт : 1950 Кбит/сек
Ширина : 720 пикселей
Высота : 400 пикселей
Соотношение сторон : 16:9
Частота кадров : 23,976 кадра/сек
Цветовое пространство : YUV
Субдискретизация насыщенности : 4:2:0
Битовая глубина : 8 бит
Тип развёртки : Прогрессивная
Метод сжатия : С потерями
Бит/(Пиксели*Кадры) : 0.282
Размер потока : 607 Мбайт (91%)
Библиотека кодирования : XviD 1.2.1 (UTC 2008-12-04)
Аудио
Идентификатор : 1
Формат : AC-3
Формат/Информация : Audio Coding 3
Расширение режима : CM (complete main)
Идентификатор кодека : 2000
Продолжительность : 43 м.
Вид битрейта : Постоянный
Битрейт : 192 Кбит/сек
Каналы : 2 канала
Расположение каналов : Front: L R
Частота : 48,0 КГц
Битовая глубина : 16 бит
Метод сжатия : С потерями
Размер потока : 59,7 Мбайт (9%)
Выравнивание : Разделение по промежуткам
Продолжительность промежутка : 42 мс. (1,00 видеокадр)
Время предзагрузки промежутка : 500 мс.
Общее
Полное имя : D:\A-raz\North America_HD_[bittracker]\s01e04_The Savage Edge.avi
Формат : AVI
Формат/Информация : Audio Video Interleave
Размер файла : 672 Мбайт
Продолжительность : 43 м.
Общий поток : 2151 Кбит/сек
Программа кодирования : VirtualDubMod 1.5.10.3 | www.virtualdub-fr.org || (build 2550/release)
Библиотека кодирования : VirtualDubMod build 2550/release
Видео
Идентификатор : 0
Формат : MPEG-4 Visual
Профиль формата : Advanced [email protected]
Параметр BVOP формата : 2
Параметр QPel формата : Нет
Параметр GMC формата : Без точки перехода
Параметр матрицы формата : Default (H.263)
Идентификатор кодека : XVID
Идентификатор кодека/Подсказка : XviD
Продолжительность : 43 м.
Битрейт : 1950 Кбит/сек
Ширина : 720 пикселей
Высота : 400 пикселей
Соотношение сторон : 16:9
Частота кадров : 23,976 кадра/сек
Цветовое пространство : YUV
Субдискретизация насыщенности : 4:2:0
Битовая глубина : 8 бит
Тип развёртки : Прогрессивная
Метод сжатия : С потерями
Бит/(Пиксели*Кадры) : 0.282
Размер потока : 609 Мбайт (91%)
Библиотека кодирования : XviD 1.2.1 (UTC 2008-12-04)
Аудио
Идентификатор : 1
Формат : AC-3
Формат/Информация : Audio Coding 3
Расширение режима : CM (complete main)
Идентификатор кодека : 2000
Продолжительность : 43 м.
Вид битрейта : Постоянный
Битрейт : 192 Кбит/сек
Каналы : 2 канала
Расположение каналов : Front: L R
Частота : 48,0 КГц
Битовая глубина : 16 бит
Метод сжатия : С потерями
Размер потока : 60,0 Мбайт (9%)
Выравнивание : Разделение по промежуткам
Продолжительность промежутка : 42 мс. (1,00 видеокадр)
Время предзагрузки промежутка : 500 мс.
Общее
Полное имя : D:\A-raz\North America_HD_[bittracker]\s01e05_Outlaws and Skeletons.avi
Формат : AVI
Формат/Информация : Audio Video Interleave
Размер файла : 674 Мбайт
Продолжительность : 43 м.
Общий поток : 2151 Кбит/сек
Программа кодирования : VirtualDubMod 1.5.10.3 | www.virtualdub-fr.org || (build 2550/release)
Библиотека кодирования : VirtualDubMod build 2550/release
Видео
Идентификатор : 0
Формат : MPEG-4 Visual
Профиль формата : Advanced [email protected]
Параметр BVOP формата : 2
Параметр QPel формата : Нет
Параметр GMC формата : Без точки перехода
Параметр матрицы формата : Default (H.263)
Идентификатор кодека : XVID
Идентификатор кодека/Подсказка : XviD
Продолжительность : 43 м.
Битрейт : 1950 Кбит/сек
Ширина : 720 пикселей
Высота : 400 пикселей
Соотношение сторон : 16:9
Частота кадров : 23,976 кадра/сек
Цветовое пространство : YUV
Субдискретизация насыщенности : 4:2:0
Битовая глубина : 8 бит
Тип развёртки : Прогрессивная
Метод сжатия : С потерями
Бит/(Пиксели*Кадры) : 0.282
Размер потока : 610 Мбайт (91%)
Библиотека кодирования : XviD 1.2.1 (UTC 2008-12-04)
Аудио
Идентификатор : 1
Формат : AC-3
Формат/Информация : Audio Coding 3
Расширение режима : CM (complete main)
Идентификатор кодека : 2000
Продолжительность : 43 м.
Вид битрейта : Постоянный
Битрейт : 192 Кбит/сек
Каналы : 2 канала
Расположение каналов : Front: L R
Частота : 48,0 КГц
Битовая глубина : 16 бит
Метод сжатия : С потерями
Размер потока : 60,1 Мбайт (9%)
Выравнивание : Разделение по промежуткам
Продолжительность промежутка : 42 мс. (1,00 видеокадр)
Время предзагрузки промежутка : 500 мс.
Общее
Полное имя : D:\A-raz\North America_HD_[bittracker]\s01e06_Revealed.avi
Формат : AVI
Формат/Информация : Audio Video Interleave
Размер файла : 666 Мбайт
Продолжительность : 43 м.
Общий поток : 2151 Кбит/сек
Программа кодирования : VirtualDubMod 1.5.10.3 | www.virtualdub-fr.org || (build 2550/release)
Библиотека кодирования : VirtualDubMod build 2550/release
Видео
Идентификатор : 0
Формат : MPEG-4 Visual
Профиль формата : Advanced [email protected]
Параметр BVOP формата : 2
Параметр QPel формата : Нет
Параметр GMC формата : Без точки перехода
Параметр матрицы формата : Default (H.263)
Идентификатор кодека : XVID
Идентификатор кодека/Подсказка : XviD
Продолжительность : 43 м.
Битрейт : 1950 Кбит/сек
Ширина : 720 пикселей
Высота : 400 пикселей
Соотношение сторон : 16:9
Частота кадров : 23,976 кадра/сек
Цветовое пространство : YUV
Субдискретизация насыщенности : 4:2:0
Битовая глубина : 8 бит
Тип развёртки : Прогрессивная
Метод сжатия : С потерями
Бит/(Пиксели*Кадры) : 0.282
Размер потока : 604 Мбайт (91%)
Библиотека кодирования : XviD 1.2.1 (UTC 2008-12-04)
Аудио
Идентификатор : 1
Формат : AC-3
Формат/Информация : Audio Coding 3
Расширение режима : CM (complete main)
Идентификатор кодека : 2000
Продолжительность : 43 м.
Вид битрейта : Постоянный
Битрейт : 192 Кбит/сек
Каналы : 2 канала
Расположение каналов : Front: L R
Частота : 48,0 КГц
Битовая глубина : 16 бит
Метод сжатия : С потерями
Размер потока : 59,5 Мбайт (9%)
Выравнивание : Разделение по промежуткам
Продолжительность промежутка : 42 мс. (1,00 видеокадр)
Время предзагрузки промежутка : 500 мс.
Общее
Полное имя : D:\A-raz\North America_HD_[bittracker]\s01e07_Top Ten.avi
Формат : AVI
Формат/Информация : Audio Video Interleave
Размер файла : 661 Мбайт
Продолжительность : 42 м.
Общий поток : 2152 Кбит/сек
Программа кодирования : VirtualDubMod 1.5.10.3 | www.virtualdub-fr.org || (build 2550/release)
Библиотека кодирования : VirtualDubMod build 2550/release
Видео
Идентификатор : 0
Формат : MPEG-4 Visual
Профиль формата : Advanced [email protected]
Параметр BVOP формата : 2
Параметр QPel формата : Нет
Параметр GMC формата : Без точки перехода
Параметр матрицы формата : Default (H.263)
Идентификатор кодека : XVID
Идентификатор кодека/Подсказка : XviD
Продолжительность : 42 м.
Битрейт : 1948 Кбит/сек
Ширина : 720 пикселей
Высота : 400 пикселей
Соотношение сторон : 16:9
Частота кадров : 29,970 кадров/сек
Цветовое пространство : YUV
Субдискретизация насыщенности : 4:2:0
Битовая глубина : 8 бит
Тип развёртки : Прогрессивная
Метод сжатия : С потерями
Бит/(Пиксели*Кадры) : 0.226
Размер потока : 598 Мбайт (91%)
Библиотека кодирования : XviD 1.2.1 (UTC 2008-12-04)
Аудио
Идентификатор : 1
Формат : AC-3
Формат/Информация : Audio Coding 3
Расширение режима : CM (complete main)
Идентификатор кодека : 2000
Продолжительность : 42 м.
Вид битрейта : Постоянный
Битрейт : 192 Кбит/сек
Каналы : 2 канала
Расположение каналов : Front: L R
Частота : 48,0 КГц
Битовая глубина : 16 бит
Метод сжатия : С потерями
Размер потока : 58,9 Мбайт (9%)
Выравнивание : Разделение по промежуткам
Продолжительность промежутка : 33 мс. (1,00 видеокадр)
Время предзагрузки промежутка : 500 мс.

Внимание! Раздача ведётся путём добавления новых выпусков

Внимание! Раздача ведётся путём добавления новых выпусков; при каждом добавлении создаётся новый торрент. Чтобы начать докачку нового выпуска, пользователям необходимо сделать следующее:
(1) остановить скачивание,
(2) удалить старый торрент у себя из клиента (старые серии удалять не надо),
(3) скачать новый торрент и запустить его у себя в клиенте вместо старого, при этом указать клиенту путь в старую папку куда и должно происходить скачивание новых выпусков.
Ваш клиент при этом должен произвести хеширование (проверку) старой папки (если не производит сам - помогите ему сделать это). В результате он будет докачивать только те выпуски, которых у Вас ещё нет. Старые выпуски при этом не удаляются, а продолжают раздаваться!
Eсли Вы уже удалили старые выпуски, то предотвратить их повторную закачку можно, сняв галочки в соответствующих местах при запуске нового торрента. По возможности, желательно не удалять старые выпуски как можно дольше, чтобы релизёр не только продолжал раздавать старые выпуски, но и смог сконцентрироваться на новых.
Яндекс.Метрика
Рейтинг@Mail.ru