Ночь демонов 2 / Night of the Demons 2 (Брайан Тренчард-Смит / Brian Trenchard-Smith) [1994 г., ужасы, DVD5] AVO (Кузнецов, Дохалов, Живов, Визгунов) + Sub (Eng, Spa)

 

Создавать темы 24-Фев-2014 13:37

Ночь демонов 2 / Night of the Demons 2
Год выпуска: 1994
Производство: США
Жанр: ужасы
Продолжительность: 01:35:06
Перевод: Авторский (одноголосый, закадровый) Кузнецов
Перевод 2: Авторский (одноголосый, закадровый) Дохалов
Перевод 3: Авторский (одноголосый, закадровый) Живов
Перевод 4: Авторский (одноголосый, закадровый) Визгунов
Субтитры: английские, испанские
Режиссер: Брайан Тренчард-Смит / Brian Trenchard-Smith
В ролях: Кристи Харрис, Дэрин Химс, Бобби Джакоби, Мерл Кеннеди, Амелия Кинкейд, Род МакКери, Джонни Моран, Рик Питерс, Дженнифер Родс, Кристин Тейлор
Описание: Теперь зритель знакомится с младшей сестрой Анжелы Мелиссой, у которой недавно умерли родители. Сюжет также незамысловат, как и в первом фильме. Группа подростков из академии Святой Риты отправляется на вечеринку Дня всех святых в заброшенное поместье «Hull House.
Несколько лет назад там были убиты несколько человек. Но тело одной девушки, Анжелы, так и не нашли…
Дополнительная информация: DVD и дороги Дохалова, Живова и Визгунова с тру, Кузнецов с моей кассеты. По умолчанию идёт Кузнецов, остальные выбираются с пульта. Чтобы влезло на пятёрку были выкинуты допы и оригинальная дорога, сабы выбрасывать было лень

Качество видео: DVD5
Контейнер: DVD Video
Видео кодек: MPEG2
Аудио кодек: AC3
Видео: NTSC 4:3 (720x480) VBR ~ 6475.78 kbps avg
Аудио : 192 kbps, 2 ch, 48 КHz - Кузнецов
Аудио #2: 192 kbps, 2 ch, 48 КHz - Дохалов
Аудио #3: 192 kbps, 2 ch, 48 КHz - Живов
Аудио #4: 192 kbps, 2 ch, 48 КHz - Визгунов

Моя рецензия

1994 год. Трёхчасовая кассета с фильмами Ночь демонов 2 и Горящая луна. Эх, ностальгия — страшная штука. Таинственный дом, группа студентов, решивших устроить в нём вечеринку, зловещая Анджела… Надо добавить, что это была вторая купленная кассета, просмотренная на советском телевизоре в чёрно-белом изображении — не переключался он в стандарт PAL. И перевод Сергея Кузнецова — вечно оцифровать забываю. Фильм очень даже понравился — вскоре с превеликим трудом была куплена кассета и с первой частью.
Но хватит ностальгировать.
Фильм начинается с места в карьер, без длительного вступления. Двое миссионеров случайно забредают в Холл-хаус, где женщина в чёрном предлагает им кусок пирога — но вместо ужина они находят лишь свою смерть. Титры на фоне кадров из первой части — и действие переносится в школу, где учатся великовозрастные хулиганы — надо сказать очень великовозрастные, так что их амурные похождения не казались чем-то непристойным — хотя по сценарию наверное задумывалось именно так.
Младшая сестра Анджелы Мелиса по прозвищу Мышка постоянно видит в своих кошмарах, как та приходит к ней — только для того, чтобы убить. Тем более странно, что после всех этих страхов она позднее так легко ей поверила и пошла следом — наверное у девушки что-то не то с головой, хотя надо было бежать со всех ног как можно дальше — но спишем это на пережитый за ночь стресс.
Той ночью в канун Хелловина стрессов было пережито действительно более чем достаточно. Злые розыгрыши Ширли и её приятелей, сама жуткая атмосфера бывшего похоронного бюро — хм, а куда же стена вокруг него делать? Снесли что ли? И само здание Холл-Хауса довольно сильно изменилось — а вот внутри оно стало ещё более пустым и зловещим, нежели в первой части — и чертовщина уже не ждёт, пока её призовут, нет — она сама спешит навстречу тем, кто посмеет нарушить границу её владений.
Студенты посмели — они совершенно ничего не боялись, считали все легенды дурацкими россказнями — за что и поплатились. Видимо плохо их учили, что нельзя брать предметы из заброшенных, овеянных злой славой домов — и вот уже зло вырвалось за подземный поток и явилось в школу во плоти.
И тут-то и началось самое интересное. Конечно не для студентов — им-то как раз было не до смеха — а для нас, зрителей. Три обращения одно другого разнообразнее — это и змея, вползающая между ног девушки, и обгоревшая рука, и отрубленная голова. Казалось бы, эта кровавая вакханалия продлится надолго и ничто не в силах её остановить, демоны заполнят весь мир, но…
В фильме нет супергероев, способных в одиночку расправиться с толпами нежити — есть лишь боевитая монахиня и отличное средство против адских порождений — святая вода и кресты. Кто-то может сказать, что притянуто за уши и от вампиров заимствовано — отнюдь — то, что явилось из Ада может быть уничтожено святыми предметами. Но всё же главное — вера.
Отец Боб не верил — за что и поплатился. А вот Перри — даже после того, как он обратился — он не потерял свою душу, он остался человеком — и ушёл человеком, а не тварью, чьё место в Аду, а не гулять по земле.
Так что, в отличие от первой части, эта картина несёт ещё и религиозный не навязанный подтекст — что не так часто случается в такого пошиба фильмах. И пусть он был выпущен сразу на кассетах, минуя кинотеатры — далеко не всегда то, что предназначено для широкого проката является самым лучшим — моя оценка неизменна
9 из 10
Если бы ещё кадры из первой части не заимствовали, а сняли бы заново…

Media Info

Общее
Полное имя : F:\Загрузки торрента\Night of the demons 2 4AVO [pirat.ca]\VIDEO_TS\VTS_01_1.VOB
Формат : MPEG-PS
Размер файла : 1024 Мбайт
Продолжительность : 22 м.
Режим общего битрейта : Переменный
Общий поток : 6391 Кбит/сек
Видео
Идентификатор : 224 (0xE0)
Формат : MPEG Video
Версия формата : Version 2
Профиль формата : [email protected]
Параметр BVOP формата : Да
Параметр матрицы формата : По умолчанию
Продолжительность : 22 м.
Вид битрейта : Переменный
Битрейт : 5496 Кбит/сек
Максимальный битрейт : 9000 Кбит/сек
Ширина : 720 пикселей
Высота : 480 пикселей
Соотношение сторон : 4:3
Частота кадров : 29,970 кадров/сек
Стандарт вещания : NTSC
Цветовое пространство : YUV
Субдискретизация насыщенности : 4:2:0
Битовая глубина : 8 бит
Тип развёртки : Чересстрочная
Порядок развёртки : Верхнее поле первое
Метод сжатия : С потерями
Бит/(Пиксели*Кадры) : 0.531
Размер потока : 881 Мбайт (86%)
Аудио #1
Идентификатор : 189 (0xBD)-128 (0x80)
Формат : AC-3
Формат/Информация : Audio Coding 3
Расширение режима : CM (complete main)
Режим смешивания : DVD-Video
Продолжительность : 22 м.
Вид битрейта : Постоянный
Битрейт : 192 Кбит/сек
Каналы : 2 канала
Расположение каналов : Front: L R
Частота : 48,0 КГц
Битовая глубина : 16 бит
Метод сжатия : С потерями
Размер потока : 30,8 Мбайт (3%)
Аудио #2
Идентификатор : 189 (0xBD)-129 (0x81)
Формат : AC-3
Формат/Информация : Audio Coding 3
Расширение режима : CM (complete main)
Режим смешивания : DVD-Video
Продолжительность : 22 м.
Вид битрейта : Постоянный
Битрейт : 192 Кбит/сек
Каналы : 2 канала
Расположение каналов : Front: L R
Частота : 48,0 КГц
Битовая глубина : 16 бит
Метод сжатия : С потерями
Размер потока : 30,8 Мбайт (3%)
Аудио #3
Идентификатор : 189 (0xBD)-130 (0x82)
Формат : AC-3
Формат/Информация : Audio Coding 3
Расширение режима : CM (complete main)
Режим смешивания : DVD-Video
Продолжительность : 22 м.
Вид битрейта : Постоянный
Битрейт : 192 Кбит/сек
Каналы : 2 канала
Расположение каналов : Front: L R
Частота : 48,0 КГц
Битовая глубина : 16 бит
Метод сжатия : С потерями
Размер потока : 30,8 Мбайт (3%)
Аудио #4
Идентификатор : 189 (0xBD)-131 (0x83)
Формат : AC-3
Формат/Информация : Audio Coding 3
Расширение режима : CM (complete main)
Режим смешивания : DVD-Video
Продолжительность : 22 м.
Вид битрейта : Постоянный
Битрейт : 192 Кбит/сек
Каналы : 2 канала
Расположение каналов : Front: L R
Частота : 48,0 КГц
Битовая глубина : 16 бит
Метод сжатия : С потерями
Размер потока : 30,8 Мбайт (3%)
Текст #1
Идентификатор : 224 (0xE0)-DVD-2
Формат : EIA-608
Режим смешивания : DVD-Video
Режим смешивания, доп. информаци : Muxed in Video #1
Вид битрейта : Постоянный
Размер потока : 0,00 байт (0%)
Текст #2
Идентификатор : 189 (0xBD)-32 (0x20)
Формат : RLE
Формат/Информация : Run-length encoding
Режим смешивания : DVD-Video
Текст #3
Идентификатор : 189 (0xBD)-33 (0x21)
Формат : RLE
Формат/Информация : Run-length encoding
Режим смешивания : DVD-Video
Меню

Скриншоты

Яндекс.Метрика
Рейтинг@Mail.ru