XXII Зимние Олимпийские Игры Сочи 2014 / Церемония закрытия (Первый - Владимир Гомельский, Кирилл Набутов) [23.02.2014 г., SATRip, AVI, RU]

 

Создавать темы 24-Фев-2014 01:58

XXII Зимние Олимпийские Игры Сочи 2014 / Церемония закрытияЖаркие. Зимние. Твои.Официальный сайт "Сочи 2014" -Год выпуска: 23.02.2014 г.
Вид спорта: Олимпиада
Участники: Люди
Продолжительность: 02:12:26
Комментарий: Профессиональный (двухголосый, закадровый)
Комментатор: Владимир Гомельский, Кирилл Набутов
Язык комментариев: русский
Автор рипа / записи: sanchez2011-Описание: Церемония закрытия завершает Игры, позволяя еще раз вспомнить самые яркие моменты и переосмыслить прошедшие соревнования.
Закрытие – последнее крупное праздничное мероприятие на Играх, на котором происходит официальное завершение Игр. Спортсмены участвуют в параде, а зрители еще раз переживают волнующую атмосферу Игр.
Помимо речи президента МОК/МПК, в Церемонии закрытия также присутствует целый ряд официальных элементов: исполнение национального гимна и гимна Греции (как столицы первых Олимпийских игр), внос флагов и парад спортсменов, спуск Олимпийского флага.
Но, конечно, Церемония закрытия – это еще и красочный праздник, на котором, также как и на Церемонии открытия, выступают блестящие артисты. Присутствие на Церемонии закрытия подарит вам незабываемые впечатления на всю жизнь.
Частью праздничной программы Церемонии закрытия является художественная часть следующего города-организатора Игр. В Сочи на церемонии закрытия, после церемонии передачи флага, выступят артисты из Кореи – государства, в котором расположена следующая столица зимнего олимпийского торжества – город Пхёнчхан.-Качество видео: SATRip
Контейнер: AVI
Видео кодек: XviD
Аудио кодек: MP3
Видео: 720x400 (1.80:1), 25 fps, XviD build 64 ~1697 kbps avg, 0.23 bit/pixel
Аудио: 48 kHz, MPEG Layer 3, 2 ch, ~128.00 kbps avg

Media Info

Общее
Формат : AVI
Формат/Информация : Audio Video Interleave
Размер файла : 1,70 Гбайт
Продолжительность : 2 ч. 12 м.
Общий поток : 1836 Кбит/сек
Программа кодирования : VirtualDubMod 1.5.10.2 (build 2540/release)
Библиотека кодирования : VirtualDubMod build 2540/release
Видео
Идентификатор : 0
Формат : MPEG-4 Visual
Профиль формата : Advanced [email protected]
Параметр BVOP формата : 2
Параметр QPel формата : Нет
Параметр GMC формата : Без точки перехода
Параметр матрицы формата : Default (H.263)
Идентификатор кодека : XVID
Идентификатор кодека/Подсказка : XviD
Продолжительность : 2 ч. 12 м.
Битрейт : 1698 Кбит/сек
Ширина : 720 пикселей
Высота : 400 пикселей
Соотношение сторон : 16:9
Частота кадров : 25,000 кадров/сек
Цветовое пространство : YUV
Субдискретизация насыщенности : 4:2:0
Битовая глубина : 8 бит
Тип развёртки : Прогрессивная
Метод сжатия : С потерями
Бит/(Пиксели*Кадры) : 0.236
Размер потока : 1,57 Гбайт (92%)
Библиотека кодирования : XviD 64
Аудио
Идентификатор : 1
Формат : MPEG Audio
Версия формата : Version 1
Профиль формата : Layer 3
Режим : Joint stereo
Расширение режима : MS Stereo
Идентификатор кодека : 55
Идентификатор кодека/Подсказка : MP3
Продолжительность : 2 ч. 12 м.
Вид битрейта : Постоянный
Битрейт : 128 Кбит/сек
Каналы : 2 канала
Частота : 48,0 КГц
Метод сжатия : С потерями
Размер потока : 121 Мбайт (7%)
Выравнивание : Соединение по промежуткам
Продолжительность промежутка : 40 мс. (1,00 видеокадр)
Время предзагрузки промежутка : 504 мс.
Библиотека кодирования : LAME3.100Є

Скриншоты

Яндекс.Метрика
Рейтинг@Mail.ru