Человек-волк / The Wolfman (Джо Джонстон / Joe Johnston) [2010 г., Ужасы, триллер, драма, BDRip] [Режиссерская версия] AVO (Гаврилов, Немахов) + VO (zamez) + Dub (Blu-ray CEE)

 

Создавать темы 23-Фев-2014 16:13

Человек-волк / The Wolfman (Режиссерская версия) Год выпуска: 2010
Производство: США, Великобритания
Жанр: Ужасы, триллер, драма
Продолжительность: 01:58:58
Перевод 1: Авторский (одноголосый, закадровый) Гаврилов
Перевод 2: Авторский (одноголосый, закадровый) Немахов
Перевод 3: Любительский (одноголосый, закадровый) (zamez)
Перевод 4: Профессиональный (полное дублирование) Blu-ray CEE
Субтитры: отсутствуют
Режиссер: Джо Джонстон / Joe Johnston-В ролях: Бенисио Дель Торо, Энтони Хопкинс, Эмили Блант, Хьюго Уивинг, Арт Малик, Кристина Контес, Саймон Мерреллс, Джемма Уилан, Марио Марин-Боркес, Эйса Баттерфилд- : Эта история разворачивается в Великобритании. Герой возвращается на Родину из Америки для того, чтобы найти без вести пропавшего брата. До него доходят слухи о том, что в предмеcтьях города обитает страшное существо, которое разрывает на части жителей окрестных деревень.
Дело расследует полиция Скотланд-Ярда, вскоре их заинтересовывает джентльмен, приехавший на поиски брата.
-Качество видео: BDRip
Контейнер: AVI
Видео кодек: XviD
Аудио кодек: AC3
Видео: 704x384 (1.85:1), 23.976 fps, XviD build 73 ~1898 kbps avg, 0.29 bit/pixel
Аудио #1: 48 kHz, AC3 Dolby Digital, 3/2 (L,C,R,l,r) + LFE ch, ~384 kbps - Гаврилов
Аудио #2: 48 kHz, AC3 Dolby Digital, 3/2 (L,C,R,l,r) + LFE ch, ~384 kbps - Немахов
Аудио #3: 48 kHz, AC3 Dolby Digital, 3/2 (L,C,R,l,r) + LFE ch, ~384 kbps - VO (zamez)
Аудио #4: 48 kHz, AC3 Dolby Digital, 2/0 (L,R) ch, ~192 kbps - Дубляж, Blu-ray CEE

Доп. информация

Исходник: Blu-Ray Remux 1920x1080 - Djon Connor
Все благодарности за перевод Андрея Гаврилова уходят - HDClub
Детям до 17 лет обязательно присутствие родителей

Награды

Оскар, 2011 год
Номинации (1):
Лучший грим

Интересно

- Фильм должен был снимать Марк Романек, но он покинул проект из-за финансовых разногласий.
- Грим человека-волка накладывали на Бенисио Дель Торо в течение 3 часов и снимали в течение часа.
- Гример Рик Бейкер сначала снял маску с лица Бенисио дель Торо, а затем вылепил на ней волчью морду. На основе слепка он изготовил из стеклопластика нечто вроде литейной формы и заполнил ее полимерной пеной. Когда латекс схватился, получились элементы маски, которые можно было укрепить на лице актера, - капюшон с волчьими ушами и лицевая часть с выступающей мордой. Оставалось лишь наложить пряди натуральной шерсти яка.

Media Info

Видео
Идентификатор : 0
Формат : MPEG-4 Visual
Профиль формата : Advanced [email protected]
Параметр BVOP формата : 1
Параметр QPel формата : Нет
Параметр GMC формата : Без точки перехода
Параметр матрицы формата : Выборочная
Идентификатор кодека : XVID
Идентификатор кодека/Подсказка : XviD
Продолжительность : 1 ч. 58 м.
Битрейт : 1898 Кбит/сек
Ширина : 704 пикселя
Высота : 384 пикселя
Соотношение сторон : 1,85:1
Частота кадров : 23,976 кадра/сек
Цветовое пространство : YUV
Субдискретизация насыщенности : 4:2:0
Битовая глубина : 8 бит
Тип развёртки : Прогрессивная
Метод сжатия : С потерями
Бит/(Пиксели*Кадры) : 0.293
Размер потока : 1,58 Гбайт (58%)
Библиотека кодирования : XviD 73
Аудио #1
Идентификатор : 1
Формат : AC-3
Формат/Информация : Audio Coding 3
Расширение режима : CM (complete main)
Параметр Endianness формата : Big
Идентификатор кодека : 2000
Продолжительность : 1 ч. 58 м.
Вид битрейта : Постоянный
Битрейт : 384 Кбит/сек
Каналы : 6 каналов
Расположение каналов : Front: L C R, Side: L R, LFE
Частота : 48,0 КГц
Битовая глубина : 16 бит
Метод сжатия : С потерями
Размер потока : 327 Мбайт (12%)
Выравнивание : Разделение по промежуткам
Продолжительность промежутка : 42 мс. (1,00 видеокадр)
Время предзагрузки промежутка : 500 мс.
Аудио #2
Идентификатор : 2
Формат : AC-3
Формат/Информация : Audio Coding 3
Расширение режима : CM (complete main)
Параметр Endianness формата : Big
Идентификатор кодека : 2000
Продолжительность : 1 ч. 58 м.
Вид битрейта : Постоянный
Битрейт : 384 Кбит/сек
Каналы : 6 каналов
Расположение каналов : Front: L C R, Side: L R, LFE
Частота : 48,0 КГц
Битовая глубина : 16 бит
Метод сжатия : С потерями
Размер потока : 327 Мбайт (12%)
Выравнивание : Разделение по промежуткам
Продолжительность промежутка : 42 мс. (1,00 видеокадр)
Время предзагрузки промежутка : 500 мс.
Аудио #3
Идентификатор : 3
Формат : AC-3
Формат/Информация : Audio Coding 3
Расширение режима : CM (complete main)
Параметр Endianness формата : Big
Идентификатор кодека : 2000
Продолжительность : 1 ч. 58 м.
Вид битрейта : Постоянный
Битрейт : 384 Кбит/сек
Каналы : 6 каналов
Расположение каналов : Front: L C R, Side: L R, LFE
Частота : 48,0 КГц
Битовая глубина : 16 бит
Метод сжатия : С потерями
Размер потока : 327 Мбайт (12%)
Выравнивание : Разделение по промежуткам
Продолжительность промежутка : 42 мс. (1,00 видеокадр)
Время предзагрузки промежутка : 500 мс.
Аудио #4
Идентификатор : 4
Формат : AC-3
Формат/Информация : Audio Coding 3
Расширение режима : CM (complete main)
Параметр Endianness формата : Big
Идентификатор кодека : 2000
Продолжительность : 1 ч. 58 м.
Вид битрейта : Постоянный
Битрейт : 192 Кбит/сек
Каналы : 2 канала
Расположение каналов : Front: L R
Частота : 48,0 КГц
Битовая глубина : 16 бит
Метод сжатия : С потерями
Размер потока : 163 Мбайт (6%)
Выравнивание : Разделение по промежуткам
Продолжительность промежутка : 42 мс. (1,00 видеокадр)
Время предзагрузки промежутка : 500 мс.

Скриншоты

Яндекс.Метрика
Рейтинг@Mail.ru