Гарфилд / Garfield (Питер Хьюит / Peter Hewitt) [2004 г., Комедия, BDRip] AVO (С.Визгунов, А.Карповский)

 

Создавать темы 23-Фев-2014 16:11

Гарфилд / Garfield Год выпуска: 2004
Производство: США
Жанр: Комедия
Продолжительность: 01:20:12
Перевод: Авторский (одноголосый, закадровый) С.Визгунов
Перевод 2: Авторский (одноголосый, закадровый) А.Карповский
Субтитры: отсутствуют
Режиссер: Питер Хьюит / Peter Hewitt
В ролях: Брекин Мейер /Breckin Meyer/, Дженнифер Лав Хьюитт /Jennifer Love Hewitt/, Стивен Тоболовски /Stephen Tobolowsky/, Билл Мюррей /Bill Murray/, Ивэн Арнольд /Evan Arnold/, Марк Кристофер Лоуренс /Mark Christopher Lawrence
Описание: Он циничен, ленив и вообще, он — жирный котяра. Сейчас Гарфилд — любимая кошка всей Америки, которая вскоре станет главной кинозвездой в фильме, рассчитанном на широкую аудиторию. Фильм сделан на основе газетных рисунков-комиксов.
Хозяин Гарфилда, Джон, приносит в дом милого щенка Оди, и с этого момента жизнь Гарфилда идёт наперекосяк. Он хочет только одного — чтобы пес исчез из его жизни и из его дома навсегда! Но когда внезапно щенка похищают, Гарфилд, возможно впервые в жизни, чувствует лежащую на нём ответственность. И он начинает действовать…
Сэмпл , КиноПоиск
Качество видео: BDRip
Контейнер: AVI
Видео кодек: XviD
Аудио кодек: AC3
Видео: 704x384 (1.83:1), 23.976 fps, XviD build 50 ~1808 kbps avg, 0.28 bit/pixel
Аудио : 48 kHz, AC3 Dolby Digital, 2/0 (L,R) ch, ~192 kbps - С.Визгунов
Аудио #2: 48 kHz, AC3 Dolby Digital, 3/2 (L,C,R,l,r) + LFE ch, ~384 kbps - А.Карповский

Media Info

Format : AVI
Format/Info : Audio Video Interleave
File size : 1.34 GiB
Duration : 1h 20mn
Overall bit rate : 2 399 Kbps
Writing application : VirtualDubMod 1.5.10.3 (build 2550/release)
Writing library : VirtualDubMod build 2550/release
Video
ID : 0
Format : MPEG-4 Visual
Format profile : Advanced [email protected]
Format settings, BVOP : 1
Format settings, QPel : No
Format settings, GMC : No warppoints
Format settings, Matrix : Custom
Codec ID : XVID
Codec ID/Hint : XviD
Duration : 1h 20mn
Bit rate : 1 809 Kbps
Width : 704 pixels
Height : 384 pixels
Display aspect ratio : 1.85:1
Frame rate : 23.976 fps
Color space : YUV
Chroma subsampling : 4:2:0
Bit depth : 8 bits
Scan type : Progressive
Compression mode : Lossy
Bits/(Pixel*Frame) : 0.279
Stream size : 1.01 GiB (75%)
Writing library : XviD 1.2.1 (UTC 2008-12-04)
Audio #1
ID : 1
Format : AC-3
Format/Info : Audio Coding 3
Mode extension : CM (complete main)
Format settings, Endianness : Big
Codec ID : 2000
Duration : 1h 20mn
Bit rate mode : Constant
Bit rate : 192 Kbps
Channel(s) : 2 channels
Channel positions : Front: L R
Sampling rate : 48.0 KHz
Bit depth : 16 bits
Compression mode : Lossy
Stream size : 110 MiB (8%)
Alignment : Split accross interleaves
Interleave, duration : 42 ms (1.00 video frame)
Interleave, preload duration : 500 ms
Audio #2
ID : 2
Format : AC-3
Format/Info : Audio Coding 3
Mode extension : CM (complete main)
Format settings, Endianness : Big
Codec ID : 2000
Duration : 1h 20mn
Bit rate mode : Constant
Bit rate : 384 Kbps
Channel(s) : 6 channels
Channel positions : Front: L C R, Side: L R, LFE
Sampling rate : 48.0 KHz
Bit depth : 16 bits
Compression mode : Lossy
Stream size : 220 MiB (16%)
Alignment : Split accross interleaves
Interleave, duration : 42 ms (1.00 video frame)
Interleave, preload duration : 500 ms

Скриншоты

Яндекс.Метрика
Рейтинг@Mail.ru