Даю год / I Give It a Year (Дэн Мазер / Dan Mazer) [2013 г., мелодрама, комедия, BDRip] Dub + Sub (Eng)

 

Создавать темы 23-Фев-2014 04:38

-Даю год / I Give It a Year-- Производство: Великобритания, Франция, Германия
Год выпуска: 2013 г.
Жанр: мелодрама, комедия
Продолжительность: 01:37:21
Мировая премьера: 17 января 2013
Российская премьера: 14 марта 2013, «Каскад»
Дата выхода DVD: 6 мая 2013, «Новый Диск»
Дата выхода Blu-Ray: 6 мая 2013, «Новый Диск»
Перевод: Профессиональный (полное дублирование)
Режиссер: Дэн Мазер / Dan Mazer-В ролях: Роуз Бирн, Рейф Сполл, Анна Фэрис, Саймон Бейкер, Александр Макквин, Стивен Мерчант, Джейн Эшер, Теренс Харви, Минни Драйвер, Джейсон Флеминг-Описание: Фильм в комедийном ключе поведает о всевозможных проблемах и трудностях, с которыми приходится сталкиваться молодоженам в первый год их семейной жизни.-
Качество видео: BDRip
Контейнер: AVI
Видео кодек: XviD
Аудио кодек: AC3
Видео: 720x304 (2.37:1), 23.976 fps, XviD build 65 ~1678 kbps avg, 0.32 bit/pixel
Аудио: 48 kHz, AC3 Dolby Digital, 3/2 (L,C,R,l,r) + LFE ch, ~448 kbps avg
Cубтитры: английские

Media Info

Общее
Полное имя : E:\Dayu.god.2013.BDRip_[pirat.ca].avi
Формат : AVI
Формат/Информация : Audio Video Interleave
Размер файла : 1,45 Гбайт
Продолжительность : 1 ч. 37 м.
Общий поток : 2135 Кбит/сек
Название фильма : Даю год / I Give It a Year (2013) BDRip
Жанр : мелодрама, комедия
Программа кодирования : VirtualDubMod 1.5.10.2 (build 2542/release)
Примечание : 15.08.2013
Видео
Идентификатор : 0
Формат : MPEG-4 Visual
Профиль формата : Advanced [email protected]
Параметр BVOP формата : 1
Параметр QPel формата : Нет
Параметр GMC формата : Без точки перехода
Параметр матрицы формата : Выборочная
Идентификатор кодека : XVID
Идентификатор кодека/Подсказка : XviD
Продолжительность : 1 ч. 37 м.
Битрейт : 1678 Кбит/сек
Ширина : 720 пикселей
Высота : 304 пикселя
Соотношение сторон : 2,35:1
Частота кадров : 23,976 кадра/сек
Цветовое пространство : YUV
Субдискретизация насыщенности : 4:2:0
Битовая глубина : 8 бит
Тип развёртки : Прогрессивная
Метод сжатия : С потерями
Бит/(Пиксели*Кадры) : 0.320
Размер потока : 1,14 Гбайт (79%)
Библиотека кодирования : XviD 65
Аудио
Идентификатор : 1
Формат : AC-3
Формат/Информация : Audio Coding 3
Расширение режима : CM (complete main)
Параметр Endianness формата : Big
Идентификатор кодека : 2000
Продолжительность : 1 ч. 37 м.
Вид битрейта : Постоянный
Битрейт : 448 Кбит/сек
Каналы : 6 каналов
Расположение каналов : Front: L C R, Side: L R, LFE
Частота : 48,0 КГц
Битовая глубина : 16 бит
Метод сжатия : С потерями
Размер потока : 312 Мбайт (21%)
Выравнивание : Разделение по промежуткам
Продолжительность промежутка : 42 мс. (1,00 видеокадр)
Время предзагрузки промежутка : 500 мс.

Скриншоты

Яндекс.Метрика
Рейтинг@Mail.ru