Олимпийские игры 2014. Хоккей. Мужчины. Матч за 3-е место. Финляндия - США (2014.02.22) SATRip

 

Создавать темы 22-Фев-2014 21:12

-Олимпийские игры 2014. Хоккей. Мужчины. Матч за 3-е место. Финляндия - США (2014.02.22)- Режиссер / Телекомпания: Россия
Русское название: Олимпийские игры 2014. Хоккей
Год выпуска: 2014
Жанр: Спорт
Ведущие: Роман Скворцов, Сергей Гимаев
Описание:
XXII зимние Олимпийские игры. Сочи. Хоккей. Мужчины. Матч за 3-е место. Финляндия - США
Продолжительность: 01:49:34
Видеокодек: XviD
Качество видео: SATRip
Битрейт видео: ~1800 kb/s
Размер кадра: 704 x 448
Аудиокодек: MP3, 2.0ch.
Битрейт аудио: 128 kb/s

MediaInfo:

Формат : AVI
Формат/Информация : Audio Video Interleave
Размер файла : 1,48 Гбайт
Продолжительность : 1 ч. 49 м.
Общий поток : 1936 Кбит/сек
Библиотека кодирования : VirtualDub build 32507/release
Видео
Идентификатор : 0
Формат : MPEG-4 Visual
Профиль формата : Advanced [email protected]
Параметр BVOP формата : 2
Параметр QPel формата : Нет
Параметр GMC формата : Без точки перехода
Параметр матрицы формата : Default (H.263)
Режим смешивания : Сжатый битовый поток
Идентификатор кодека : XVID
Идентификатор кодека/Подсказка : XviD
Продолжительность : 1 ч. 49 м.
Битрейт : 1798 Кбит/сек
Ширина : 704 пикселя
Высота : 448 пикселей
Соотношение сторон : 1,571
Частота кадров : 25,000 кадров/сек
Цветовое пространство : YUV
Субдискретизация насыщенности : 4:2:0
Битовая глубина : 8 бит
Тип развёртки : Прогрессивная
Метод сжатия : С потерями
Бит/(Пиксели*Кадры) : 0.228
Размер потока : 1,37 Гбайт (93%)
Библиотека кодирования : XviD 1.1.2 (UTC 2006-11-01)
Аудио
Идентификатор : 1
Формат : MPEG Audio
Версия формата : Version 1
Профиль формата : Layer 3
Режим : Joint stereo
Расширение режима : MS Stereo
Идентификатор кодека : 55
Идентификатор кодека/Подсказка : MP3
Продолжительность : 1 ч. 49 м.
Вид битрейта : Постоянный
Битрейт : 128 Кбит/сек
Каналы : 2 канала
Частота : 48,0 КГц
Метод сжатия : С потерями
Размер потока : 100 Мбайт (7%)
Выравнивание : Разделение по промежуткам
Продолжительность промежутка : 40 мс. (1,00 видеокадр)
Время предзагрузки промежутка : 500 мс.
Скриншоты:

Яндекс.Метрика
Рейтинг@Mail.ru