ХХII Зимние Олимпийские Игры Сочи 2014 / Хоккей на льду, Предварительный раунд / Мужчины / Группа A / Россия - Словения (Спорт 1 HD - Роман Скворцов, Сергей Гимаев) [13.02.2014 г., HDTVRip, MKV, 720p, RU]

 

Создавать темы 22-Фев-2014 21:05

Хоккей на льду, Предварительный раунд / Мужчины / Группа A
Россия - Словения
Жаркие. Зимние. Твои.Официальный сайт "Сочи 2014" -Год выпуска: 13.02.2014 г.
Вид спорта: Хоккей на льду
Участники: Россия - Словения (Мужчины)
Продолжительность: 02:02:55
Комментатор: Роман Скворцов, Сергей Гимаев
Язык комментариев: русский
Автор рипа / записи: Striker-ТВ Канал: -Арена: Большой (Сочи, Россия) 13 февраля 2014 года, четверг. 16:30 МСК-Качество видео: HDTVRip
Контейнер: MKV
Видео кодек: H.264
Аудио кодек: AC3
Видео: 4450 Кбит/сек; 1280*720 (16:9); в 50,000 кадра/сек; AVC; 0.097 Бит/(Пиксели*Кадры)
Аудио: 192 Кбит/сек; 48,0 КГц; 16 бит; 2 каналоа; АС-3
[url=http://pirat.ca/viewtopic.php?t=126668][/url]Хоккей на льду. Расписание и результаты. Скачать.

Составы команд

Россия: Семён Варламов (Сергей Бобровский), Вячеслав Войнов — Андрей Марков — Павел Дацюк — Александр Радулов — Илья Ковальчук, Алексей Емелин — Евгений Медведев — Александр Овечкин — Евгений Малкин — Александр Сёмин, Илья Никулин — Фёдор Тютин — Николай Кулёмин — Артём Анисимов — Владимир Тарасенко, Никита Никитин — Антон Белов — Александр Попов — Алексей Терещенко — Валерий Ничушкин.
Главный тренер: Зинэтула Билялетдинов.-Словения: Роберт Кристан (Лука Грачнар), Алеш Краньц — Сабахудин Ковачевич — Анже Копитар — Давид Родман — Ян Муршак, Блаж Грегорц — Митя Робар — Жига Еглич — Рок Тичар — Роберт Саболич, Матиц Подлипник — Жига Павлин — Томаж Разингар — Марцел Родман — Ян Урбас, Андрей Тавжель — Клемен Претнар — Алеш Мушич — Жига Панце — Боштьян Голичич.
Главный тренер: Матьяж Копитар.-Главный судья: Дэйв Джексон (Канада), Владимир Шиндлер (Чехия).

Media Info

Общее
Уникальный идентификатор : 241134163715519975712828732629350947177 (0xB568C02AB181DF90970AB98412BD1969)
Формат : Matroska
Версия формата : Version 4 / Version 2
Размер файла : 4,07 Гбайт
Продолжительность : 2 ч. 2 м.
Общий поток : 4736 Кбит/сек
Дата кодирования : UTC 2014-02-13 14:47:36
Программа кодирования : mkvmerge v6.4.1 ('Omega Point') built on Sep 16 2013 22:05:10
Библиотека кодирования : libebml v1.3.0 + libmatroska v1.4.1
Видео
Идентификатор : 1
Формат : AVC
Формат/Информация : Advanced Video Codec
Профиль формата : [email protected]
Параметр CABAC формата : Нет
Параметр ReFrames формата : 1 кадр
Идентификатор кодека : V_MPEG4/ISO/AVC
Продолжительность : 2 ч. 2 м.
Битрейт : 4450 Кбит/сек
Ширина : 1280 пикселей
Высота : 720 пикселей
Соотношение сторон : 16:9
Режим частоты кадров : Постоянный
Частота кадров : 50,000 кадров/сек
Цветовое пространство : YUV
Субдискретизация насыщенности : 4:2:0
Битовая глубина : 8 бит
Тип развёртки : Прогрессивная
Бит/(Пиксели*Кадры) : 0.097
Размер потока : 3,82 Гбайт (94%)
Default : Да
Forced : Нет
Аудио
Идентификатор : 2
Формат : AC-3
Формат/Информация : Audio Coding 3
Расширение режима : CM (complete main)
Параметр Endianness формата : Big
Идентификатор кодека : A_AC3
Продолжительность : 2 ч. 2 м.
Вид битрейта : Постоянный
Битрейт : 192 Кбит/сек
Каналы : 2 канала
Расположение каналов : Front: L R
Частота : 48,0 КГц
Битовая глубина : 16 бит
Метод сжатия : С потерями
Размер потока : 169 Мбайт (4%)
Default : Да
Forced : Нет

Скриншоты

Яндекс.Метрика
Рейтинг@Mail.ru