[ Сегодня на трекере фрилич! Идет свободное скачивание без начисления Download ]

Лавка ужасов / Little Shop of Horrors (Фрэнк Оз / Frank Oz) [1986 г., мюзикл, комедия, BDRip-AVC] AVO (А.Алексеев, А.Михалев) + MVO + Original (Eng) + Sub (Eng) [Jolly Roger]

 

Создавать темы 22-Фев-2014 16:53

-Лавка ужасов / Little Shop of Horrors- Год выпуска: 1986 г.
Производство: США
Жанр: мюзикл, комедия
Продолжительность: 01:33:54
Перевод 1, 2: Авторский (одноголосый, закадровый) [А.Алексеев, А.Михалев]
Перевод 3: Профессиональный (многоголосый закадовый)
Оригинальный аудиопоток: английский
Режиссер: Фрэнк Оз / Frank Oz
В ролях: Рик Морэнис, Эллен Грин, Винсент Гардения, Стив Мартин, Тичина Арнольд, Мишель Викс, Тиша Кэмпбелл, Леви Стаббс, Джеймс Белуши, Джон Кэнди
Описание: В цветочном магазине выставили странное растение — зловещий цветок, с появлением которого и началась эта история. Цветок не нуждался в обычном уходе, в поливке, в солнечном свете, — потому что по природе своей он… людоед.
И каждый вечер он ждет новую жертву к себе на ужин. Эта знаменитая, прогремевшая на всю Америку картина — великолепный мюзикл, забавный и страшный одновременно, с участием монстра — цветка и известнейших американских комиков.
Качество видео: BDRip-AVC
Контейнер: MKV
Видео кодек: H.264
Аудио кодек: AC3
Видео: MPEG4 Video (H264) 1024x576 23.976fps 2354 Kbps
Аудио 1: Dolby AC3 48000Hz 6ch 384 Kbps / А. Алексеев
Аудио 2: Dolby AC3 48000Hz 2ch 192 Kbps / А. Михалев
Аудио 3: Dolby AC3 44100Hz 2ch 192 Kbps / Многоголосый
Аудио 4: Dolby AC3 48000Hz 2ch 192 Kbps / Английский
Субтитры: английские (2 вида), отключаемые

Media Info / x.264

Log 2-nd pass

x264 [info]: using SAR=1/1
x264 [info]: using cpu capabilities: MMX2 SSE2Fast SSSE3 Cache64 SlowShuffle
x264 [info]: profile High, level 4.1
x264 [info]: frame I:965 Avg QP:15.79 size: 78967
x264 [info]: frame P:27526 Avg QP:19.10 size: 27083
x264 [info]: frame B:106606 Avg QP:22.04 size: 7834
x264 [info]: consecutive B-frames: 1.4% 2.1% 6.2% 20.3% 18.4% 32.3% 8.6% 4.0% 3.3% 2.1% 1.4%
x264 [info]: mb I I16..4: 17.8% 55.8% 26.4%
x264 [info]: mb P I16..4: 3.8% 16.8% 2.3% P16..4: 32.3% 25.5% 9.9% 1.1% 0.1% skip: 8.1%
x264 [info]: mb B I16..4: 0.8% 3.0% 0.2% B16..8: 28.9% 15.8% 2.3% direct: 5.4% skip:43.6% L0:43.7% L1:38.7% BI:17.6%
x264 [info]: 8x8 transform intra:72.5% inter:59.5%
x264 [info]: direct mvs spatial:98.8% temporal:1.2%
x264 [info]: coded y,uvDC,uvAC intra: 75.5% 61.9% 29.9% inter: 23.5% 14.4% 1.6%
x264 [info]: i16 v,h,dc,p: 33% 15% 27% 25%
x264 [info]: i8 v,h,dc,ddl,ddr,vr,hd,vl,hu: 20% 14% 21% 6% 7% 8% 7% 8% 9%
x264 [info]: i4 v,h,dc,ddl,ddr,vr,hd,vl,hu: 23% 14% 19% 5% 10% 9% 8% 6% 7%
x264 [info]: i8c dc,h,v,p: 30% 31% 21% 17%
x264 [info]: Weighted P-Frames: Y:5.5% UV:2.0%
x264 [info]: ref P L0: 41.7% 10.9% 24.8% 7.9% 8.7% 5.4% 0.6% 0.0%
x264 [info]: ref B L0: 70.9% 17.3% 8.2% 2.8% 0.9%
x264 [info]: ref B L1: 92.0% 8.0%
x264 [info]: kb/s:2352.35
x264 [total]: encoded 135097 frames, 0.71 fps, 2352.35 kb/s
General
Unique ID : 237968412819953115676102748033368096168 (0xB3070C98D1889502999D132955367DA8)
Complete name : G:\Little.Shop.of.Horrors.1986.H.264.BDRip-AVC.JRG.mkv
Format : Matroska
Format version : Version 4 / Version 2
File size : 2.17 GiB
Duration : 1h 33mn
Overall bit rate : 3 315 Kbps
Movie name : The Jolly Roger Release Group by http://Pirat.CA
Encoded date : UTC 2014-02-22 07:56:18
Writing application : mkvmerge v6.6.0 ('The Edge Of The In Between') built on Dec 1 2013 17:55:00
Writing library : libebml v1.3.0 + libmatroska v1.4.1
Video
ID : 1
Format : AVC
Format/Info : Advanced Video Codec
Format profile : [email protected]
Format settings, CABAC : Yes
Format settings, ReFrames : 6 frames
Codec ID : V_MPEG4/ISO/AVC
Duration : 1h 33mn
Bit rate : 2 354 Kbps
Width : 1 024 pixels
Height : 576 pixels
Display aspect ratio : 16:9
Frame rate mode : Constant
Frame rate : 23.976 fps
Color space : YUV
Chroma subsampling : 4:2:0
Bit depth : 8 bits
Scan type : Progressive
Bits/(Pixel*Frame) : 0.166
Stream size : 1.50 GiB (69%)
Writing library : x264 core 130 r2273 b3065e6
Encoding settings : cabac=1 / ref=6 / deblock=1:0:0 / analyse=0x3:0x133 / me=esa / subme=11 / psy=0 / mixed_ref=1 / me_range=24 / chroma_me=1 / trellis=2 / 8x8dct=1 / cqm=0 / deadzone=21,11 / fast_pskip=0 / chroma_qp_offset=0 / threads=3 / lookahead_threads=1 / sliced_threads=0 / nr=0 / decimate=1 / interlaced=0 / bluray_compat=0 / constrained_intra=0 / bframes=10 / b_pyramid=2 / b_adapt=2 / b_bias=0 / direct=3 / weightb=1 / open_gop=0 / weightp=2 / keyint=250 / keyint_min=23 / scenecut=40 / intra_refresh=0 / rc_lookahead=50 / rc=2pass / mbtree=1 / bitrate=2354 / ratetol=1.0 / qcomp=0.60 / qpmin=0 / qpmax=69 / qpstep=4 / cplxblur=20.0 / qblur=0.5 / ip_ratio=1.40 / aq=1:1.00
Default : Yes
Forced : No
Audio #1
ID : 2
Format : AC-3
Format/Info : Audio Coding 3
Mode extension : CM (complete main)
Format settings, Endianness : Big
Codec ID : A_AC3
Duration : 1h 33mn
Bit rate mode : Constant
Bit rate : 384 Kbps
Channel(s) : 6 channels
Channel positions : Front: L C R, Side: L R, LFE
Sampling rate : 48.0 KHz
Bit depth : 16 bits
Compression mode : Lossy
Stream size : 258 MiB (12%)
Title : Alekseev
Language : Russian
Default : Yes
Forced : No
Audio #2
ID : 3
Format : AC-3
Format/Info : Audio Coding 3
Mode extension : CM (complete main)
Format settings, Endianness : Big
Codec ID : A_AC3
Duration : 1h 33mn
Bit rate mode : Constant
Bit rate : 192 Kbps
Channel(s) : 2 channels
Channel positions : Front: L R
Sampling rate : 48.0 KHz
Bit depth : 16 bits
Compression mode : Lossy
Stream size : 129 MiB (6%)
Title : Mihalev
Language : Russian
Default : No
Forced : No
Audio #3
ID : 4
Format : AC-3
Format/Info : Audio Coding 3
Mode extension : CM (complete main)
Format settings, Endianness : Big
Codec ID : A_AC3
Duration : 1h 33mn
Bit rate mode : Constant
Bit rate : 192 Kbps
Channel(s) : 2 channels
Channel positions : Front: L R
Sampling rate : 44.1 KHz
Bit depth : 16 bits
Compression mode : Lossy
Stream size : 129 MiB (6%)
Title : MVO
Language : Russian
Default : No
Forced : No
Audio #4
ID : 5
Format : AC-3
Format/Info : Audio Coding 3
Mode extension : CM (complete main)
Format settings, Endianness : Big
Codec ID : A_AC3
Duration : 1h 33mn
Bit rate mode : Constant
Bit rate : 192 Kbps
Channel(s) : 2 channels
Channel positions : Front: L R
Sampling rate : 48.0 KHz
Bit depth : 16 bits
Compression mode : Lossy
Stream size : 129 MiB (6%)
Title : Eng
Language : English
Default : No
Forced : No
Text #1
ID : 6
Format : UTF-8
Codec ID : S_TEXT/UTF8
Codec ID/Info : UTF-8 Plain Text
Language : English
Default : No
Forced : No
Text #2
ID : 7
Format : UTF-8
Codec ID : S_TEXT/UTF8
Codec ID/Info : UTF-8 Plain Text
Title : SDH
Language : English
Default : No
Forced : No

Скриншоты

Яндекс.Метрика
Рейтинг@Mail.ru