[ Сегодня на трекере фрилич! Идет свободное скачивание без начисления Download ]

ХХII Зимние Олимпийские Игры Сочи 2014 / Биатлон, Масс-старт 15 км / Мужчины (Спорт 1 HD - Дмитрий Губерниев) [18.02.2014 г., HDTVRip, MKV, RU]

 

Создавать темы 22-Фев-2014 16:50

Биатлон, Масс-старт 15 км / МужчиныЖаркие. Зимние. Твои.Официальный сайт "Сочи 2014" -Год выпуска: 18.02.2014 г.
Вид спорта: Биатлон, Масс-старт 15 км
Участники: Мужчины
Продолжительность: 00:50:43
Комментатор: Дмитрий Губерниев
Язык комментариев: русский
Автор рипа / записи: Багга-ТВ Канал: -Арена: Лаура (Сочи, Россия) 18 февраля 2014 года, вторник. 14:45 МСК-Качество видео: HDTVRip
Контейнер: MKV
Видео кодек: H.264
Аудио кодек: AC3
Видео: 1571 Кбит/сек; 704*400 (16:9); в 25,000 кадра/сек; AVC; 0.223 Бит/(Пиксели*Кадры)
Аудио: 192 Кбит/сек; 48,0 КГц; 16 бит; 2 каналоа; АС-3
[url=http://pirat.ca/viewtopic.php?t=126746][/url]Биатлон. Расписание и результаты. Скачать.

Составы команд

1 Эмиль Хегле Свендсен Норвегия
2 Мартен Фуркад Франция
3 Ондржей Моравец Чехия
4 Яков Фак Словения
5 Евгений Гараничев Россия
6 Фредрик Линдстрём Швеция
7 Доминик Ландертингер Австрия
8 Йоханнес Бё Норвегия
9 Брендан Грин Канада
10 Жан-Филипп Легеллек Канада
11 Антон Шипулин Россия
12 Бьорн Ферри Швеция
13 Симон Шемпп Германия
14 Андрей Расторгуев Латвия
15 Матей Казар Словакия
16 Симон Эдер Австрия
17 Жан-Гийом Беатрикс Франция
18 Арнд Пайффер Германия
19 Евгений Устюгов Россия
20 Дмитрий Малышко Россия
21 Тим Бурк США
22 Уле-Эйнар Бьорндален Норвегия
23 Лоуэлл Бэйли США
24 Ярослав Соукуп Чехия
25 Доминик Виндиш Италия
26 Эрик Лессер Германия
27 Кристоф Зуман Австрия
Натан Смит Канада
Симон Фуркад Франция
Лукас Хофер Италия

Media Info

Общее
Уникальный идентификатор : 174675159017568062571019089432203906560 (0x83693640FEDD773E90DB8A6370464E00)
Формат : Matroska
Версия формата : Version 2
Размер файла : 653 Мбайт
Продолжительность : 50 м.
Общий поток : 1799 Кбит/сек
Дата кодирования : UTC 2014-02-18 11:23:28
Программа кодирования : mkvmerge v3.4.0 ('Rapunzel') сборка от May 15 2010 09:38:20
Библиотека кодирования : XviD4PSP 6.0 / 54.3.100
Видео
Идентификатор : 2
Формат : AVC
Формат/Информация : Advanced Video Codec
Профиль формата : [email protected]
Параметр CABAC формата : Да
Параметр ReFrames формата : 3 кадра
Идентификатор кодека : V_MPEG4/ISO/AVC
Продолжительность : 50 м.
Битрейт : 1571 Кбит/сек
Ширина : 704 пикселя
Высота : 400 пикселей
Соотношение сторон : 16:9
Режим частоты кадров : Постоянный
Частота кадров : 25,000 кадров/сек
Цветовое пространство : YUV
Субдискретизация насыщенности : 4:2:0
Битовая глубина : 8 бит
Тип развёртки : Прогрессивная
Бит/(Пиксели*Кадры) : 0.223
Размер потока : 570 Мбайт (87%)
Язык : English
Default : Нет
Forced : Нет
Дата кодирования : UTC 2014-02-18 10:19:08
HANDLER_NAME : AVerMedia Video Media Handler
Аудио
Идентификатор : 1
Формат : AC-3
Формат/Информация : Audio Coding 3
Расширение режима : CM (complete main)
Параметр Endianness формата : Big
Идентификатор кодека : A_AC3
Продолжительность : 50 м.
Вид битрейта : Постоянный
Битрейт : 192 Кбит/сек
Каналы : 2 канала
Расположение каналов : Front: L R
Частота : 48,0 КГц
Битовая глубина : 16 бит
Метод сжатия : С потерями
Задержка видео : 27 мс.
Размер потока : 69,6 Мбайт (11%)
Язык : English
Default : Нет
Forced : Нет
Дата кодирования : UTC 2014-02-18 10:19:08
HANDLER_NAME : AVerMedia Audio Media Handler

Скриншоты

Яндекс.Метрика
Рейтинг@Mail.ru