То, что ты делаешь! / That Thing You Do! (Том Хэнкс / Tom Hanks) [1996 г., Музыкальная ностальгическая комедия, BDRip, 576p] AVO (Юрий Сербин) [Extended Cut] + Sub (Eng)

 

Создавать темы 22-Фев-2014 04:21

То, что ты делаешь! / That Thing You Do! [Extended Cut]«In every life there comes a time when that dream you dream becomes that thing you do.»- Год выпуска: 1996
Производство: США,
Жанр: Музыкальная ностальгическая комедия
Продолжительность: 02:27:33
Перевод: Авторский (одноголосый, закадровый) Юрий Сербин
Субтитры: английские
Режиссер: Том Хэнкс / Tom Hanks
В ролях: Том Эверетт Скотт / Tom Everett Scott, Лив Тайлер / Liv Tyler, Джонатон Шек / Johnathon Schaech, Стив Зан / Steve Zahn, Итан Эмбри / Ethan Embry, Том Хэнкс / Tom Hanks, Шарлиз Терон / Charlize Theron, Джованни Рибизи / Giovanni Ribisi
Описание: Молодой продавец магазина бытовой техники соглашается подменить получившего травму барабанщика группы на местном конкурсе молодых талантов. Это событие обернулось космическим взлетом четырех новых звезд. Быстрее, чем вы успеете произнести «то, что ты делаешь», менеджер студии грамзаписи записывает музыку ребят и в одночасье делает их знаменитыми, ибо их композиция стремительно поднялась на первую строчку хит-парадов... Ну а дальше....
Качество видео: BDRip
Контейнер: MKV
Стандарт разрешения: 576p
Видео: 1024x552 at 23.976 fps, [email protected], ~3759 Kbps avg
Аудио: DTS 5.1 / 48 kHz / 1509 kbps / 24-bit - Юрий Сербин
Формат субтитров: SRT (S_TEXT/UTF8)

Награды

Оскар, 1997 год
Номинации (1):
Лучшая песня — «That Thing You Do!»
Золотой глобус, 1997 год
Номинации (1):
Лучшая песня — «That Thing You Do!»

Media Info

Формат : Matroska
Версия формата : Version 4 / Version 2
Размер файла : 5,54 Гбайт
Продолжительность : 2 ч. 27 м.
Общий поток : 5375 Кбит/сек
Название фильма : That Thing You Do! (Extended) [1996] (Serbin)
Дата кодирования : UTC 2014-02-21 16:27:20
Программа кодирования : mkvmerge v6.7.0 ('Back to the Ground') 32bit built on Jan 8 2014 15:03:17
Библиотека кодирования : libebml v1.3.0 + libmatroska v1.4.1
Видео
Идентификатор : 1
Формат : AVC
Формат/Информация : Advanced Video Codec
Профиль формата : [email protected]
Параметр CABAC формата : Да
Параметр ReFrames формата : 9 кадров
Идентификатор кодека : V_MPEG4/ISO/AVC
Продолжительность : 2 ч. 27 м.
Битрейт : 3759 Кбит/сек
Ширина : 1024 пикселя
Высота : 552 пикселя
Соотношение сторон : 1,85:1
Режим частоты кадров : Постоянный
Частота кадров : 23,976 кадра/сек
Цветовое пространство : YUV
Субдискретизация насыщенности : 4:2:0
Битовая глубина : 8 бит
Тип развёртки : Прогрессивная
Бит/(Пиксели*Кадры) : 0.277
Размер потока : 3,87 Гбайт (70%)
Заголовок : That Thing You Do! [Extended] (1996)
Библиотека кодирования : x264 core 130 r2273 b3065e6
Настройки программы : cabac=1 / ref=9 / deblock=1:-2:-1 / analyse=0x3:0x113 / me=umh / subme=11 / psy=1 / psy_rd=0.95:0.10 / mixed_ref=1 / me_range=24 / chroma_me=1 / trellis=2 / 8x8dct=1 / cqm=0 / deadzone=21,11 / fast_pskip=1 / chroma_qp_offset=-3 / threads=3 / lookahead_threads=1 / sliced_threads=0 / nr=0 / decimate=1 / interlaced=0 / bluray_compat=0 / constrained_intra=0 / bframes=12 / b_pyramid=2 / b_adapt=2 / b_bias=0 / direct=1 / weightb=1 / open_gop=0 / weightp=2 / keyint=250 / keyint_min=23 / scenecut=40 / intra_refresh=0 / rc_lookahead=50 / rc=crf / mbtree=1 / crf=18.7 / qcomp=0.60 / qpmin=0 / qpmax=69 / qpstep=4 / ip_ratio=1.40 / aq=2:1.00
Язык : English
Default : Да
Forced : Нет
Аудио
Идентификатор : 2
Формат : DTS
Формат/Информация : Digital Theater Systems
Режим : 16
Параметр Endianness формата : Big
Идентификатор кодека : A_DTS
Продолжительность : 2 ч. 27 м.
Вид битрейта : Постоянный
Битрейт : 1509 Кбит/сек
Каналы : 6 каналов
Расположение каналов : Front: L C R, Side: L R, LFE
Частота : 48,0 КГц
Битовая глубина : 24 бит
Метод сжатия : С потерями
Задержка видео : 11 мс.
Размер потока : 1,56 Гбайт (28%)
Заголовок : DTS 5.1 @ 1536 kbps - AVO, Y.Serbin
Язык : Russian
Default : Да
Forced : Нет
Текст #1
Идентификатор : 3
Формат : UTF-8
Идентификатор кодека : S_TEXT/UTF8
Идентификатор кодека/Информация : UTF-8 Plain Text
Заголовок : English
Язык : English
Default : Нет
Forced : Нет
Текст #2
Идентификатор : 4
Формат : UTF-8
Идентификатор кодека : S_TEXT/UTF8
Идентификатор кодека/Информация : UTF-8 Plain Text
Заголовок : SDH
Язык : English
Default : Нет
Forced : Нет
Меню
00:00:00.000 : en:1. Main Title (Lovin' You Lots and Lots)
00:03:52.983 : en:2. Mr. Downtown
00:08:34.180 : en:3. What's In a Name?
00:11:05.582 : en:4. Man Down!
00:13:20.091 : en:5. A Big Proposition
00:16:13.848 : en:6. The One-ders
00:18:34.780 : en:7. The Mercyhurst College Talent Show
00:21:12.396 : en:8. Uptempo Beat
00:24:53.492 : en:9. Villapiano's
00:31:15.957 : en:10. Make a Record
00:33:11.781 : en:11. A Big Fan
00:34:33.279 : en:12. Little Wild One
00:35:43.975 : en:13. Hose
00:37:04.472 : en:14. Phil Horace
00:41:53.761 : en:15. Christmas in July
00:43:41.244 : en:16. On the Radio
00:46:57.481 : en:17. Other Plans
00:48:19.188 : en:18. 2,203
00:56:36.852 : en:19. Welcome to Pittsburgh
01:00:15.111 : en:20. The Play-Tone Galaxy of Stars
01:06:03.167 : en:21. The Ohio State Fair
01:10:18.673 : en:22. Climbing the Charts
01:14:09.695 : en:23. Dance With Me Tonight
01:19:28.388 : en:24. Going to California
01:22:29.111 : en:25. Movie Star Musicians
01:27:02.926 : en:26. Pay Homage to Sol
01:32:36.968 : en:27. Jazz Quiz
01:39:29.547 : en:28. The Blue Spot
01:40:00.828 : en:29. Lost Cause
01:41:17.154 : en:30. Advice from Del
01:42:21.927 : en:31. Wolfman Fills In
01:47:48.378 : en:32. The Hollywood Television Showcase
01:52:46.009 : en:33. That Thing You Do
01:56:49.002 : en:34. Wasted Kisses
02:00:29.097 : en:35. One-Hit Wonders
02:04:28.169 : en:36. Spartacus
02:08:35.582 : en:37. Saying Goodbye
02:13:38.135 : en:38. One Question
02:18:39.978 : en:39. Where are They Now? End Titles
02:21:12.213 : en:40. Phil Horace

Скриншоты

Яндекс.Метрика
Рейтинг@Mail.ru