[ Сегодня на трекере фрилич! Идет свободное скачивание без начисления Download ]

Балбесы / The Goonies (Ричард Доннер /Richard Donner) [1985 г., Приключения, BDRip-AVC] AVO (Михалев, Володарский) + original (Eng)

 

Создавать темы 21-Фев-2014 16:03

Балбесы / The Goonies
Год выпуска: 1985
Производство: США
Жанр: Приключения
Продолжительность: 1:53:57
Перевод: Авторский (одноголосый, закадровый) Михалев, Володарский
Оригинальный аудиопоток: английский
Режиссер: Ричард Доннер /Richard Donner
В ролях: Шон Эстин /Sean Astin/, Джош Бролин /Josh Brolin/, Джефф Коэн /Jeff Cohen/, Кори Фелдман /Corey Feldman/, Керри Грин /Kerri Green/, Марта Плимптон /Martha Plimpton/

Описание: Команда маленьких героев пускается в самое опасное в их жизни путешествие! Они ищут сокровища, которые спрятал 300 лет назад пират Одноглазый Уилли.
С помощью найденной на чердаке таинственной карты они спускаются в подземный мир глубоких пещер, опасных ловушек, чтобы найти пиратский галеон, полный золотых дублонов. Но самая большая опасность уже наступает им на пятки: это — банда злодеев… и загадочный монстр!

Сэмпл ,
Качество видео: BDRip-AVC
Контейнер: MKV
Видео кодек: H.264
Аудио кодек: AC3
Видео: 2586 Кбит/сек, 1040 * 432 пикселя, 23,976 кадра/сек
Аудио : 384 Кбит/сек, 6 каналов, 48,0 КГц, 16 бит - Михалёв
Аудио #2: 192 Кбит/сек, 2 канала, 48,0 КГц, 16 бит - Володарский
Аудио #3: 384 Кбит/сек, 6 каналов, 48,0 КГц, 16 бит - eng

Media Info

F:\pirat.ca\Новая папка\БАЛБЕСЫ .mkv
General
Unique ID : 222111544558929538933553191130089007312 (0xA71920A19CDA6FE7B74F8D12BE8E28D0)
Complete name : F:\pirat.ca\Новая папка\БАЛБЕСЫ .mkv
Format : Matroska
Format version : Version 4 / Version 2
File size : 2.82 GiB
Duration : 1h 53mn
Overall bit rate : 3 546 Kbps
Encoded date : UTC 2014-02-20 20:44:36
Writing application : mkvmerge v6.1.0 ('Old Devil') built on Mar 4 2013 09:10:42
Writing library : libebml v1.3.0 + libmatroska v1.4.0
Video #1
ID : 1
Format : AVC
Format/Info : Advanced Video Codec
Format profile : [email protected]
Format settings, CABAC : Yes
Format settings, ReFrames : 4 frames
Codec ID : V_MPEG4/ISO/AVC
Duration : 1h 53mn
Bit rate : 2 586 Kbps
Width : 1 040 pixels
Height : 432 pixels
Display aspect ratio : 2.40:1
Frame rate : 23.976 fps
Color space : YUV
Chroma subsampling : 4:2:0
Bit depth : 8 bits
Scan type : Progressive
Bits/(Pixel*Frame) : 0.240
Stream size : 2.00 GiB (71%)
Writing library : x264 core 130 r2273 b3065e6
Encoding settings : cabac=1 / ref=4 / deblock=1:-1:-1 / analyse=0x3:0x133 / me=umh / subme=10 / psy=1 / psy_rd=1.00:0.15 / mixed_ref=1 / me_range=24 / chroma_me=1 / trellis=2 / 8x8dct=1 / cqm=0 / deadzone=21,11 / fast_pskip=1 / chroma_qp_offset=-3 / threads=12 / lookahead_threads=1 / sliced_threads=0 / nr=0 / decimate=1 / interlaced=0 / bluray_compat=0 / constrained_intra=0 / bframes=3 / b_pyramid=2 / b_adapt=2 / b_bias=0 / direct=3 / weightb=1 / open_gop=0 / weightp=2 / keyint=250 / keyint_min=23 / scenecut=40 / intra_refresh=0 / rc_lookahead=60 / rc=2pass / mbtree=1 / bitrate=2586 / ratetol=1.0 / qcomp=0.60 / qpmin=0 / qpmax=69 / qpstep=4 / cplxblur=20.0 / qblur=0.5 / ip_ratio=1.40 / aq=1:1.00
Audio #2
ID : 2
Format : AC-3
Format/Info : Audio Coding 3
Mode extension : CM (complete main)
Codec ID : A_AC3
Duration : 1h 53mn
Bit rate mode : Constant
Bit rate : 384 Kbps
Channel(s) : 6 channels
Channel positions : Front: L C R, Side: L R, LFE
Sampling rate : 48.0 KHz
Bit depth : 16 bits
Compression mode : Lossy
Stream size : 313 MiB (11%)
Title : Михалёв
Language : Russian
Audio #3
ID : 3
Format : AC-3
Format/Info : Audio Coding 3
Mode extension : CM (complete main)
Codec ID : A_AC3
Duration : 1h 53mn
Bit rate mode : Constant
Bit rate : 192 Kbps
Channel(s) : 2 channels
Channel positions : Front: L R
Sampling rate : 48.0 KHz
Bit depth : 16 bits
Compression mode : Lossy
Stream size : 156 MiB (5%)
Title : Володарский
Language : Russian
Audio #4
ID : 4
Format : AC-3
Format/Info : Audio Coding 3
Mode extension : CM (complete main)
Codec ID : A_AC3
Duration : 1h 53mn
Bit rate mode : Constant
Bit rate : 384 Kbps
Channel(s) : 6 channels
Channel positions : Front: L C R, Side: L R, LFE
Sampling rate : 48.0 KHz
Bit depth : 16 bits
Compression mode : Lossy
Stream size : 313 MiB (11%)
Title : eng
Language : English

Скриншоты

Яндекс.Метрика
Рейтинг@Mail.ru