Последний рейд / The Missing (Рон Ховард / Ron Howard) [2003 г., вестерн, триллер, драма, HDTVRip] AVO (А.Гаврилов, Ю.Живов)

 

Создавать темы 21-Фев-2014 16:01

Последний рейд / The Missing Год выпуска: 2003
Производство: США
Жанр: вестерн, триллер, драма
Продолжительность: 02:11:17
Перевод: Авторский (одноголосый, закадровый) А.Гаврилов
Перевод 2: Авторский (одноголосый, закадровый) Ю.Живов
Субтитры: отсутствуют
Режиссер: Рон Ховард / Ron Howard
В ролях: Томми Ли Джонс, Кейт Бланшетт, Ивэн Рэйчел Вуд, Дженна Бойд, Аарон Экхарт, Вэл Килмер, Серджо Кальдерон, Эрик Швейг, Стив Ривис, Джей Таваре
Описание: Дикий Запад, 1886 год. Мэгги Гилксон всегда была сильной женщиной не робкого десятка. Иначе она просто не смогла бы выжить в опасной глуши Нью-Мексико, настоящей вольнице для лихих людей. Но однажды и Мэгги не убереглась: ее старшую дочь похитил бандит Чайдин, которого считали психом даже матерые убийцы. Полиции в прерии нет, и героине приходится просить о помощи своего отца Сэма, с которым она зареклась иметь дело, после того, как тот бросил семью и ушел жить к индейцам апачи. Но, по иронии судьбы, лишь этот странный, нелюдимый и давно ставший чужим человек способен спасти ее Лили, выследив безумного Чайдина, по слухам, обладающего сверхъестественными способностями...
Сэмпл , КиноПоиск
Качество видео: HDTVRip
Контейнер: AVI
Видео кодек: XviD
Аудио кодек: AC3
Видео: 720x304 (2.37:1), 25 fps, XviD build 50 ~1915 kbps avg, 0.35 bit/pixel
Аудио : 48 kHz, AC3 Dolby Digital, 3/2 (L,C,R,l,r) + LFE ch, ~448 kbps - А.Гаврилов
Аудио #2: 48 kHz, AC3 Dolby Digital, 3/2 (L,C,R,l,r) + LFE ch, ~448 kbps - Ю.Живов

Media Info

General
Complete name : D:\Films 2\The Missing.2003 HDTVRip by DeASS.avi
Format : AVI
Format/Info : Audio Video Interleave
Format profile : OpenDML
File size : 2.59 GiB
Duration : 2h 11mn
Overall bit rate : 2 819 Kbps
Movie name : The Missing.2003 HDTVRip by DeASS
Director : DeASS
Genre : Drama/Western
Writing application : VirtualDubMod 1.5.10.3 (build 2550/release)
Original source form/Name : Movie
Copyright : 2014.02.20
Video
ID : 0
Format : MPEG-4 Visual
Format profile : Advanced [email protected]
Format settings, BVOP : 1
Format settings, QPel : No
Format settings, GMC : No warppoints
Format settings, Matrix : Default (MPEG)
Codec ID : XVID
Codec ID/Hint : XviD
Duration : 2h 11mn
Bit rate : 1 906 Kbps
Width : 720 pixels
Height : 304 pixels
Display aspect ratio : 2.35:1
Frame rate : 25.000 fps
Color space : YUV
Chroma subsampling : 4:2:0
Bit depth : 8 bits
Scan type : Progressive
Compression mode : Lossy
Bits/(Pixel*Frame) : 0.348
Stream size : 1.75 GiB (68%)
Writing library : XviD 1.2.1 (UTC 2008-12-04)
Audio #1
ID : 1
Format : AC-3
Format/Info : Audio Coding 3
Mode extension : CM (complete main)
Format settings, Endianness : Big
Codec ID : 2000
Duration : 2h 11mn
Bit rate mode : Constant
Bit rate : 448 Kbps
Channel(s) : 6 channels
Channel positions : Front: L C R, Side: L R, LFE
Sampling rate : 48.0 KHz
Bit depth : 16 bits
Compression mode : Lossy
Stream size : 421 MiB (16%)
Alignment : Split accross interleaves
Interleave, duration : 40 ms (1.00 video frame)
Interleave, preload duration : 500 ms
Audio #2
ID : 2
Format : AC-3
Format/Info : Audio Coding 3
Mode extension : CM (complete main)
Format settings, Endianness : Big
Codec ID : 2000
Duration : 2h 11mn
Bit rate mode : Constant
Bit rate : 448 Kbps
Channel(s) : 6 channels
Channel positions : Front: L C R, Side: L R, LFE
Sampling rate : 48.0 KHz
Bit depth : 16 bits
Compression mode : Lossy
Stream size : 421 MiB (16%)
Alignment : Split accross interleaves
Interleave, duration : 40 ms (1.00 video frame)
Interleave, preload duration : 500 ms

Скриншоты

Яндекс.Метрика
Рейтинг@Mail.ru