[ Сегодня на трекере фрилич! Идет свободное скачивание без начисления Download ]

Нераскрытые тайны.Тайна архива "Аненербе" (ТК "Москва Доверие") [2014 г., документальный, познавательный, история, SATRip]

 

Создавать темы 18-Фев-2014 17:36

-Нераскрытые тайны.Тайна архива "Аненербе"-- Производство: Россия
Жанр: документальный, познавательный, история
Год выпуска: 2014 г.
Продолжительность: 00:44:00
Перевод: Не требуется
Оригинальный аудиопоток: русский
Режиссер: ТК "Москва Доверие"-Описание: "Аненербе" или "Наследие предков" - так называлось таинственное научное сообщество Третьего рейха. Считается, что это оно смогло выделить раковую клетку, у него был зафиксирован первый в мире случай излечения от рака, оно создало десятки стратегических бомбардировщиков и ракет ФАУ-2. Архивы организации достались странам-победительницам во Второй мировой войне, в том числе СССР. Какие знания дали странные бумаги с замысловатыми символами миру и почему они до сих пор засекречены, смотрите в познавательном фильме "Нераскрытые тайны".-Качество видео: SATRip
Контейнер: AVI
Видео кодек: XviD
Аудио кодек: MP3
Видео: 704x384 (1.83:1), 25 fps, XviD build 50 ~1221 kbps avg, 0.18 bit/pixel
Аудио: 48 kHz, MPEG Layer 3, 2 ch, ~128.00 kbps avg
Cубтитры: отсутствуют

Media Info

General
Complete name : C:\Users\Mersicc\Videos\anerbe.avi
Format : AVI
Format/Info : Audio Video Interleave
File size : 428 MiB
Duration : 44mn 0s
Overall bit rate : 1 359 Kbps
Writing application : VirtualDubMod 1.5.10.3 | www.virtualdub-fr.org || (build 2550/release)
Writing library : VirtualDubMod build 2550/release
Video
ID : 0
Format : MPEG-4 Visual
Format profile : Advanced [email protected]
Format settings, BVOP : Yes
Format settings, QPel : No
Format settings, GMC : No warppoints
Format settings, Matrix : Default (MPEG)
Codec ID : XVID
Codec ID/Hint : XviD
Duration : 44mn 0s
Bit rate : 1 221 Kbps
Width : 704 pixels
Height : 384 pixels
Display aspect ratio : 1.85:1
Frame rate : 25.000 fps
Color space : YUV
Chroma subsampling : 4:2:0
Bit depth : 8 bits
Scan type : Progressive
Compression mode : Lossy
Bits/(Pixel*Frame) : 0.181
Stream size : 384 MiB (90%)
Writing library : XviD 1.2.1 (UTC 2008-12-04)
Audio
ID : 1
Format : MPEG Audio
Format version : Version 1
Format profile : Layer 3
Codec ID : 55
Codec ID/Hint : MP3
Duration : 44mn 0s
Bit rate mode : Constant
Bit rate : 128 Kbps
Channel count : 2 channels
Sampling rate : 48.0 KHz
Compression mode : Lossy
Stream size : 40.3 MiB (9%)
Alignment : Aligned on interleaves
Interleave, duration : 40 ms (1.00 video frame)
Interleave, preload duration : 504 ms
Writing library : LAME3.99r
Encoding settings : -m s -V 4 -q 2 -lowpass 17 -b 128

Скриншот c названием фильма

Скриншоты

Создавать темы 18-Фев-2014 19:03 (спустя 1 час 27 минут)

Sergei3744,
Огромное спасибочки, вот такое я люблю смотреть. Ещё бы что то из "Криминальная Россия", было бы вообще супер. С уважением!!! aa
Яндекс.Метрика
Рейтинг@Mail.ru