План побега / Escape Plan (Микаэль Хофстрём / Mikael Håfström) [2013 г., Боевик, триллер, детектив, HDRip] AVO (Андрей Гаврилов) + original (Eng)

 

Создавать темы 18-Фев-2014 16:48

-План побега / Escape Plan-- Год выпуска: 2013
Производство: США, Atmosphere Entertainment
Жанр: Боевик, триллер, детектив
Продолжительность: 01:55:36-Перевод: Авторский (одноголосый, закадровый) Андрей Гаврилов-Оригинальный аудиопоток: английский
Субтитры: отсутствуют
Режиссер: Микаэль Хофстрём / Mikael Håfström
В ролях: Сильвестр Сталлоне, Арнольд Шварценеггер, Джеймс Кэвизел, Фифти Сент, Винни Джонс, Винсент Д`Онофрио, Эми Райан, Сэм Нилл, Каитриона Бэлфи, Фаран Таир--Описание: Один из самых выдающихся мировых специалистов по системам безопасности соглашается на последнюю рисковую операцию: сбежать из суперсекретной высокотехнологичной тюрьмы, которую называют «Гробницей». Преданный Рэй Бреслин вынужден прибегнуть к помощи напарника — заключенного Эмиля Ротмайера, чтобы разработать отчаянный и практически неосуществимый план побега из самой защищенной тюрьмы в мире!-- - -Качество видео: HDRip
Контейнер: AVI
Видео кодек: XviD
Аудио кодек: AC3
Видео: 720x304 (2.37:1), 23.976 fps, XviD MPEG-4 ~1645 kbps avg, 0.31 bit/pixel-Аудио : 48 kHz, AC3 Dolby Digital, 3/2 (L,C,R,l,r) + LFE ch, ~448 kbps - Гаврилов
Аудио #2: 48 kHz, AC3 Dolby Digital, 3/2 (L,C,R,l,r) + LFE ch, ~448 kbps - оригинал (английский)-

Кванты

I frames: 2788 frames, size = 36814/102638395, quants = 2 / 2.00 / 2
P frames: 84417 frames, size = 10868/917457732, quants = 2 / 2.00 / 2
B frames: 79087 frames, size = 5016/396757442, quants = 2 / 2.00 / 2

Media Info

General
Complete name : G:\На пиратку\! не розданные\Escape.Plan.2013.HDRip.Gavrilov.eng_byGross.avi
Format : AVI
Format/Info : Audio Video Interleave
Format profile : OpenDML
File size : 2.06 GiB
Duration : 1h 55mn
Overall bit rate : 2 549 Kbps
Writing application : VirtualDubMod 1.5.10.2 (build 2540/release)
Writing library : VirtualDubMod build 2540/release
Video
ID : 0
Format : MPEG-4 Visual
Format profile : Advanced [email protected]
Format settings, BVOP : Yes
Format settings, QPel : No
Format settings, GMC : No warppoints
Format settings, Matrix : Custom
Codec ID : XVID
Codec ID/Hint : XviD
Duration : 1h 55mn
Bit rate : 1 634 Kbps
Width : 720 pixels
Height : 304 pixels
Display aspect ratio : 2.35:1
Frame rate : 23.976 fps
Color space : YUV
Chroma subsampling : 4:2:0
Bit depth : 8 bits
Scan type : Progressive
Compression mode : Lossy
Bits/(Pixel*Frame) : 0.311
Stream size : 1.32 GiB (64%)
Writing library : XviD 73
Audio #1
ID : 1
Format : AC-3
Format/Info : Audio Coding 3
Mode extension : CM (complete main)
Format settings, Endianness : Big
Codec ID : 2000
Duration : 1h 55mn
Bit rate mode : Constant
Bit rate : 448 Kbps
Channel count : 6 channels
Channel positions : Front: L C R, Side: L R, LFE
Sampling rate : 48.0 KHz
Bit depth : 16 bits
Compression mode : Lossy
Stream size : 370 MiB (18%)
Alignment : Split accross interleaves
Interleave, duration : 42 ms (1.00 video frame)
Interleave, preload duration : 500 ms
Audio #2
ID : 2
Format : AC-3
Format/Info : Audio Coding 3
Mode extension : CM (complete main)
Format settings, Endianness : Big
Codec ID : 2000
Duration : 1h 55mn
Bit rate mode : Constant
Bit rate : 448 Kbps
Channel count : 6 channels
Channel positions : Front: L C R, Side: L R, LFE
Sampling rate : 48.0 KHz
Bit depth : 16 bits
Compression mode : Lossy
Stream size : 370 MiB (18%)
Alignment : Split accross interleaves
Interleave, duration : 42 ms (1.00 video frame)
Interleave, preload duration : 500 ms

Скриншоты

Яндекс.Метрика
Рейтинг@Mail.ru