Похищенная / A Lonely Place to Die (Джулиан Джилби / Julian Gilbey) [2011 г., боевик, триллер, криминал, приключения, DVD9] MVO [Лицензия] + Sub (Rus) + Original (Eng)

 

Создавать темы 18-Фев-2014 16:39

-Похищенная / A Lonely Place to Die-- Производство: Великобритания, Carnaby Films PLC, Eigerwand Pictures, Molinare Studio
Год выпуска: 2011 г.
Жанр: боевик, триллер, криминал, приключения
Продолжительность: 01:35:09
Мировая премьера: 12 февраля 2011
Дата выхода DVD: 18 апреля 2012, «Кармен Видео»
Перевод: Профессиональный (многоголосый, закадровый) [лицензия]
Оригинальный аудиопоток: английский
Режиссер: Джулиан Джилби / Julian Gilbey-В ролях: Мелисса Джордж, Карел Роден, Эдвард Спелирс, Имонн Уолкер, Шон Харрис, Алек Ньюман, Кейт Магован, Гарри Суини, Стивен МакКоул, Пол Андерсон...-Описание: Пятеро альпинистов совершают восхождение на одну из шотландских возвышенностей. Поднявшись, они обнаруживают юную девочку, которая непонятно как оказалась одна в совершенно дикой местности...-Качество видео: DVD9
Контейнер: DVD Video
Видео кодек: MPEG2
Аудио кодек: AC3
Видео: MPEG 2, 720x576 PAL (16:9), 25.000 fps, 6 000 Kbps (0.817 bit/pixel)
Аудио: Russian, AC3, 48.0 KHz, 6 ch, 448 Kbps, CBR (MVO)
Аудио #2: English, AC3, 48.0 KHz, 6 ch, 384 Kbps, CBR (оригинал)
Аудио #3: Russian, AC3, 48.0 KHz, 2 ch, 192 Kbps, CBR (MVO)
Cубтитры: русские

Media Info

General
Complete name : H:\БУРЖУЙСКОЕ КИНО\DVD\Pohishenaiy.2011.DVD-9\VIDEO_TS\VTS_01_1.VOB
Format : MPEG-PS
File size : 1 024 MiB
Duration : 14mn 46s
Overall bit rate : 9 693 Kbps
Video
ID : 224 (0xE0)
Format : MPEG Video
Format version : Version 2
Format profile : [email protected]
Format settings, Matrix : Default
Duration : 14mn 46s
Bit rate mode : Constant
Bit rate : 8 284 Kbps
Nominal bit rate : 6 000 Kbps
Width : 720 pixels
Height : 576 pixels
Display aspect ratio : 16/9
Frame rate : 25.000 fps
Standard : PAL
Colorimetry : 4:2:0
Scan type : Interlaced
Scan order : Bottom Field First
Bits/(Pixel*Frame) : 0.799
Stream size : 875 MiB (85%)
Audio #1
ID : 128 (0x80)
Format : AC-3
Format/Info : Audio Coding 3
Duration : 14mn 46s
Bit rate mode : Constant
Bit rate : 448 Kbps
Channel(s) : 6 channels
Channel positions : Front: L C R, Surround: L R, LFE
Sampling rate : 48.0 KHz
Stream size : 47.3 MiB (5%)
Audio #2
ID : 129 (0x81)
Format : AC-3
Format/Info : Audio Coding 3
Duration : 14mn 46s
Bit rate mode : Constant
Bit rate : 384 Kbps
Channel(s) : 6 channels
Channel positions : Front: L C R, Surround: L R, LFE
Sampling rate : 48.0 KHz
Stream size : 40.6 MiB (4%)
Audio #3
ID : 130 (0x82)
Format : AC-3
Format/Info : Audio Coding 3
Duration : 14mn 46s
Bit rate mode : Constant
Bit rate : 192 Kbps
Channel(s) : 2 channels
Channel positions : L R
Sampling rate : 48.0 KHz
Stream size : 20.3 MiB (2%)
Text
ID : 32 (0x20)
Format : RLE
Format/Info : Run-length encoding
Duration : 14mn 45s
Menu
Format : DVD-Video

Скриншот c названием фильма

Скриншоты Меню:

Скриншоты

Яндекс.Метрика
Рейтинг@Mail.ru