Оптом дешевле / Cheaper by the Dozen (Шон Левиn / Shawn Levy) [2003, США, комедия, семейный, HDTV 1080i] Dub

 

Создавать темы 18-Фев-2014 02:24

Оптом дешевле / Cheaper by the Dozen
Страна: США
Жанр: комедия, семейный
Год выпуска: 2003
Продолжительность: 01:24:30
Перевод: Профессиональный (дублированный)
Cубтитры: нет
Оригинальная аудиодорожка: нет
Режиссер: Шон Левиn / Shawn Levy
В ролях: Стив Мартин, Бонни Хант, Пайпер Перабо, Том Уэллинг, Хилари Дафф, Эштон Катчер, Ричард Дженкинс, Алан Рак, Пола Маршалл, Холмс Осборн, Форрест Лэндис, Блейк Вудрафф, Брент Кинсман, Шейн Кинсман, Лилиана Муми, Стивен Энтони Лоуренс, Джейкоб Смит, Элисон Стоунер, Морган Йорк, Ванесса Белл Кэллоуэй, Рекс Линн
Описание: Том и Кейт вместе еще со школы. Они всегда мечтали о большой семье и успешной карьере. Но после рождения первых детей мысли о карьере ушли на второй план и все семейство переехало в тихий и спокойной Иллинойс. Когда детей стало уже двенадцать, Тому предложили работу его мечты — тренировать футбольную команду.
Для этого всей семье опять приходится поменять место жительства. Кейт тоже повезло — ее мемуары наконец-то опубликуют. Она едет на презентацию книги в Нью-Йорк, оставляя бедного Тома следить за целой оравой детей. Сможет ли Том правильно распределить свои усилия, чтобы ни дети, ни работа не пострадали?
Сэмпл: http://multi-up.com/952015
Тип релиза: HDTV 1080i
Контейнер: TS
Видео: AVC, 1920x1080 (16/9), 25.000 fps, 13.0 Mbps (0.250 bit/pixel)
Аудио: MP2, 48.0 KHz, 2 ch, 192 Kbps, CBR (Russian)

MediaInfo

Общее
Идентификатор : 3 (0x3)
Полное имя : K:\МОИ РАЗДАЧИ\Оптом дешевле.TS
Формат : MPEG-TS
Размер файла : 8,34 Гбайт
Продолжительность : 1 ч. 24 м.
Режим общего битрейта : Переменный
Общий поток : 14,1 Мбит/сек
Видео
Идентификатор : 2141 (0x85D)
Идентификатор меню : 21004 (0x520C)
Формат : AVC
Формат/Информация : Advanced Video Codec
Профиль формата : [email protected]
Параметр CABAC формата : Да
Параметр ReFrames формата : 3 кадра
Идентификатор кодека : 27
Продолжительность : 1 ч. 24 м.
Битрейт : 13,2 Мбит/сек
Ширина : 1920 пикселей
Высота : 1080 пикселей
Соотношение сторон : 16:9
Частота кадров : 25,000 кадров/сек
Стандарт вещания : Component
Цветовое пространство : YUV
Субдискретизация насыщенности : 4:2:0
Битовая глубина : 8 бит
Тип развёртки : Чересстрочная
Порядок развёртки : Верхнее поле первое
Бит/(Пиксели*Кадры) : 0.255
Размер потока : 7,81 Гбайт (94%)
Основные цвета : BT.709
Характеристики трансфера : BT.709
Коэффициенты матрицы : BT.709
Аудио
Идентификатор : 2142 (0x85E)
Идентификатор меню : 21004 (0x520C)
Формат : MPEG Audio
Версия формата : Version 1
Профиль формата : Layer 2
Идентификатор кодека : 4
Продолжительность : 1 ч. 24 м.
Вид битрейта : Постоянный
Битрейт : 192 Кбит/сек
Каналы : 2 канала
Частота : 48,0 КГц
Метод сжатия : С потерями
Задержка видео : 23 мс.
Размер потока : 116 Мбайт (1%)
Язык : Russian

Скриншоты


Яндекс.Метрика
Рейтинг@Mail.ru