ХХII Зимние Олимпийские Игры Сочи 2014 / Биатлон, Масс-старт 12,5 км / Женщины (Спорт 1 HD - Дмитрий Губерниев) [17.02.2014 г., HDTVRip, MKV, 720p, RU]

 

Создавать темы 17-Фев-2014 21:25

ХХII Зимние Олимпийские Игры Сочи 2014 /
Биатлон, Масс-старт 12,5 км / Женщины
Жаркие. Зимние. Твои.Официальный сайт "Сочи 2014" -Год выпуска: 15.02.2014 г.
Вид спорта: Биатлон, Масс-старт 12,5 км
Участники: Женщины
Продолжительность: 00:49:20
Комментатор: Дмитрий Губерниев
Язык комментариев: русский
Автор рипа / записи: Striker-ТВ Канал: -Арена: Лаура (Сочи, Россия) 17 февраля 2014 года, понедельник. 19:00 МСК-Качество видео: HDTVRip
Контейнер: MKV
Видео кодек: H.264
Аудио кодек: AC3
Видео: 4414 Кбит/сек; 1280*720 (16:9); в 50,000 кадра/сек; AVC; 0.096 Бит/(Пиксели*Кадры)
Аудио: 192 Кбит/сек; 48,0 КГц; 16 бит; 2 каналоа; АС-3
[url=http://pirat.ca/viewtopic.php?t=126746][/url]Биатлон. Расписание и результаты. Скачать.

Составы команд

1 Дарья Домрачева Белоруссия
2 Габриэла Соукалова Чехия
3 Тириль Экхофф Норвегия
4 Эви Захенбахер-Штеле Германия
5 Тея Грегорин Словения
6 Моника Хойниш Польша
7 Кайса Мякяряйнен Финляндия
8 Елена Пидгрушная Украина
9 Вероника Виткова Чехия
10 Селина Гаспарин Швейцария
11 Анаи Бескон Франция
12 Сюзан Данкли США
13 Валентина Семеренко Украина
14 Карин Оберхофер Италия
15 Тура Бергер Норвегия
16 Надежда Скардино Белоруссия
17 Вита Семеренко Украина
18 Андреа Хенкель Германия
19 Кристина Палка Польша
20 Вероника Новаковска-Земняк Польша
21 Ева Тофалви Румыния
22 Ольга Вилухина Россия
23 Юлия Джима Украина
24 Ольга Зайцева Россия
25 Анн-Кристин Офедт Флатланн Норвегия
26 Доротея Вирер Италия
27 Анастасия Кузьмина Словакия
28 Меган Имри Канада
29 Франциска Хильдебранд Германия
Элиза Гаспарин Швейцария

Media Info

Общее
Уникальный идентификатор : 309382447167661234757468631337480702980 (0xE8C0E4555094BDFF69490E61371B4C04)
Формат : Matroska
Версия формата : Version 2
Размер файла : 1,62 Гбайт
Продолжительность : 49 м.
Общий поток : 4699 Кбит/сек
Название фильма : Веб-камера, TV или другое видеоустройство
Программа кодирования : Lavf54.63.104
Библиотека кодирования : Lavf54.63.104
Видео
Идентификатор : 1
Формат : AVC
Формат/Информация : Advanced Video Codec
Профиль формата : [email protected]
Параметр CABAC формата : Нет
Параметр ReFrames формата : 1 кадр
Идентификатор кодека : V_MPEG4/ISO/AVC
Продолжительность : 49 м.
Битрейт : 4414 Кбит/сек
Ширина : 1280 пикселей
Высота : 720 пикселей
Соотношение сторон : 16:9
Режим частоты кадров : Постоянный
Частота кадров : 50,000 кадров/сек
Цветовое пространство : YUV
Субдискретизация насыщенности : 4:2:0
Битовая глубина : 8 бит
Тип развёртки : Прогрессивная
Бит/(Пиксели*Кадры) : 0.096
Размер потока : 1,52 Гбайт (94%)
Default : Да
Forced : Нет
Аудио
Идентификатор : 2
Формат : AC-3
Формат/Информация : Audio Coding 3
Расширение режима : CM (complete main)
Параметр Endianness формата : Big
Идентификатор кодека : A_AC3
Продолжительность : 49 м.
Вид битрейта : Постоянный
Битрейт : 192 Кбит/сек
Каналы : 2 канала
Расположение каналов : Front: L R
Частота : 48,0 КГц
Битовая глубина : 16 бит
Метод сжатия : С потерями
Размер потока : 67,7 Мбайт (4%)
Default : Да
Forced : Нет

Скриншоты

Яндекс.Метрика
Рейтинг@Mail.ru