[ Сегодня на трекере фрилич! Идет свободное скачивание без начисления Download ]

ХХII Зимние Олимпийские Игры Сочи 2014 / Хоккей на льду, Предварительный раунд / Мужчины / Финляндия - Канада / Группа В (Спорт 1 HD - Александр Ткачев, Олег Браташ) [16.02.2014 г., HDTVRip, MKV, 720p, RU]

 

Создавать темы 17-Фев-2014 21:23

ХХII Зимние Олимпийские Игры Сочи 2014 /
Хоккей на льду, Предварительный раунд / Мужчины / Финляндия - Канада / Группа В
Жаркие. Зимние. Твои.Официальный сайт "Сочи 2014" -Год выпуска: 16.02.2014 г.
Вид спорта: Хоккей на льду
Участники: Финляндия - Канада (Мужчины)
Продолжительность: 01:53:53
Комментатор: Александр Ткачев, Олег Браташ
Язык комментариев: русский
Автор рипа / записи: Striker-ТВ Канал: -Арена: Большой (Сочи, Россия)16 февраля 2014 года, воскресенье. 21:00 МСК-Качество видео: HDTVRip
Контейнер: MKV
Видео кодек: H.264
Аудио кодек: AC3
Видео: 4443 Кбит/сек; 1280*720 (16:9); в 50,000 кадра/сек; AVC; 0.096 Бит/(Пиксели*Кадры)
Аудио: 192 Кбит/сек; 48,0 КГц; 16 бит; 2 каналоа; АС-3
[url=http://pirat.ca/viewtopic.php?t=126668][/url]Хоккей на льду. Расписание и результаты. Скачать.

Составы команд

Финляндия: Туукка Раск (Антти Ниеми), Киммо Тимонен — Сами Ватанен — Теему Селянне — Яркко Иммонен — Микаэль Гранлунд, Олли Мяяття — Сами Сало — Олли Йокинен — Туомо Рууту — Лаури Корпикоски, Сами Лепистё — Юусо Хиетанен — Петри Контиола — Юсси Йокинен — Юхаматти Аалтонен, Осси Вяянянен — Лассе Кукконен — Йори Лехтеря — Антти Пильстрём — Леонид Комаров.
Главный тренер: Эркка Вестерлунд.-Канада: Кэри Прайс (Роберто Луонго), Данкан Кит — Ши Уэбер — Джейми Бенн — Патрис Бержерон — Сидни Кросби, Дрю Даути — Марк-Эдуар Власич — Мэтт Дюшейн — Райан Гецлаф — Кори Перри, Джей Боумистер — Алекс Пьетранджело — Патрик Марло — Джонатан Тэйвз — Джефф Картер, Дэн Хэмьюс — Патрик Шарп — Крис Куниц — Джон Таварес — Рик Нэш.
Главный тренер: Майк Бэбкок.-Главный судья: Антонин Ержабек (Чехия), Кевин Поллок (Канада).

Media Info

Общее
Уникальный идентификатор : 300336673411825109694650340392859278001 (0xE1F2BD40F0841D4C941065B267AF1AB1)
Формат : Matroska
Версия формата : Version 2
Размер файла : 3,76 Гбайт
Продолжительность : 1 ч. 53 м.
Общий поток : 4729 Кбит/сек
Программа кодирования : Lavf52.64.2
Библиотека кодирования : Lavf52.64.2
Видео
Идентификатор : 1
Формат : AVC
Формат/Информация : Advanced Video Codec
Профиль формата : [email protected]
Параметр CABAC формата : Нет
Параметр ReFrames формата : 1 кадр
Идентификатор кодека : V_MPEG4/ISO/AVC
Продолжительность : 1 ч. 53 м.
Битрейт : 4443 Кбит/сек
Ширина : 1280 пикселей
Высота : 720 пикселей
Соотношение сторон : 16:9
Режим частоты кадров : Постоянный
Частота кадров : 50,000 кадров/сек
Цветовое пространство : YUV
Субдискретизация насыщенности : 4:2:0
Битовая глубина : 8 бит
Тип развёртки : Прогрессивная
Бит/(Пиксели*Кадры) : 0.096
Размер потока : 3,53 Гбайт (94%)
Default : Да
Forced : Нет
Аудио
Идентификатор : 2
Формат : AC-3
Формат/Информация : Audio Coding 3
Расширение режима : CM (complete main)
Параметр Endianness формата : Big
Идентификатор кодека : A_AC3
Продолжительность : 1 ч. 53 м.
Вид битрейта : Постоянный
Битрейт : 192 Кбит/сек
Каналы : 2 канала
Расположение каналов : Front: L R
Частота : 48,0 КГц
Битовая глубина : 16 бит
Метод сжатия : С потерями
Размер потока : 156 Мбайт (4%)
Default : Да
Forced : Нет

Скриншоты

Яндекс.Метрика
Рейтинг@Mail.ru