Забытая рота / The Lost Battalion (Рассел Малкэй / Russell Mulcahy) [2001 г., боевик, драма, военный, BDRip-AVC, 720p] MVO + AVO (Ю.Живов) + Original (Eng)

 

Создавать темы 17-Фев-2014 21:20

-Забытая рота / The Lost Battalion-- Производство: США, Люксембург
Год выпуска: 2001 г.
Жанр: боевик, драма, военный
Продолжительность: 01:31:51
Мировая премьера: 2 декабря 2001
Перевод: Профессиональный (многоголосый, закадровый)
Перевод 2: Авторский (одноголосый, закадровый) [Ю.Живов]
Оригинальный аудиопоток: английский
Режиссер: Рассел Малкэй / Russell Mulcahy-В ролях: Рик Шродер, Фил МакКи, Джэми Харрис, Джей Родан, Адам Джеймс, Даниэль Кальтаджироне, Адам Котц, Андре Випполис, Риз Майлз, Томас Артур Кремер, Джастин Скот...-Описание: В 1917 году американская армия вступила в союз с французами и англичанами, воюющими с Германией. Октябрь 1918 года, Франция. Командир подразделения, майор Чарльз Виттлси, получает приказ захватить и удержать стратегически важную точку в Аргоннском лесу. Ведя ожесточённый бой и неся колоссальные потери, американцы всё-таки занимают нужную позицию. Но как оказалось, они сильно опередили линию наступления и теперь оказались в тылу врага. Попросту — в ловушке…-
Качество видео: BDRip-AVC
Контейнер: MKV
Стандарт разрешения: 720p
Видео кодек: H.264
Аудио кодек: AC3, DTS
Видео: AVC, 1280x720 [email protected] (16:9), 23.976 fps, 8 140 Kbps (0.368 bit/pixel)
Аудио: Russian, AC3, 48.0 KHz, 6 ch, 384 Kbps, CBR (MVO)
Аудио #2: Russian, AC3 Dolby Digital, 48.0 KHz, 2 ch, 192 Kbps, CBR (VO - Ю.Живов)
Аудио #3: English, DTS, 48.0 KHz, 6 ch, 1 510 Kbps, CBR (оригинал)
Cубтитры: отсутствуют

Media Info

General
Complete name : E:\BDRip\Забытая рота\zabyitaya.rota.2001.BDRip.720p.mkv
Format : Matroska
File size : 6.56 GiB
Duration : 1h 31mn
Overall bit rate : 10.2 Mbps
Encoded date : UTC 2011-12-13 20:54:12
Writing application : mkvmerge v4.9.1 ('Ich will') сборка от Jul 11 2011 23:53:15
Writing library : libebml v1.2.1 + libmatroska v1.1.1
Video
ID : 1
Format : AVC
Format/Info : Advanced Video Codec
Format profile : [email protected]
Format settings, CABAC : Yes
Format settings, ReFrames : 9 frames
Muxing mode : Container [email protected]
Codec ID : V_MPEG4/ISO/AVC
Duration : 1h 31mn
Bit rate : 7 936 Kbps
Nominal bit rate : 8 140 Kbps
Width : 1 280 pixels
Height : 720 pixels
Display aspect ratio : 16/9
Frame rate : 23.976 fps
Resolution : 24 bits
Colorimetry : 4:2:0
Scan type : Progressive
Bits/(Pixel*Frame) : 0.359
Stream size : 5.09 GiB (78%)
Writing library : x264 core 120 r2120 0c7dab9
Encoding settings : cabac=1 / ref=9 / deblock=1:-1:-1 / analyse=0x3:0x113 / me=umh / subme=10 / psy=1 / psy_rd=1.10:0.20 / mixed_ref=1 / me_range=32 / chroma_me=1 / trellis=2 / 8x8dct=1 / cqm=0 / deadzone=21,11 / fast_pskip=0 / chroma_qp_offset=-3 / threads=6 / sliced_threads=0 / nr=0 / decimate=1 / interlaced=0 / bluray_compat=0 / constrained_intra=0 / bframes=7 / b_pyramid=2 / b_adapt=2 / b_bias=0 / direct=3 / weightb=1 / open_gop=0 / weightp=2 / keyint=240 / keyint_min=23 / scenecut=40 / intra_refresh=0 / rc_lookahead=60 / rc=2pass / mbtree=1 / bitrate=8140 / ratetol=1.0 / qcomp=0.70 / qpmin=0 / qpmax=69 / qpstep=4 / cplxblur=20.0 / qblur=0.5 / vbv_maxrate=50000 / vbv_bufsize=62500 / nal_hrd=none / ip_ratio=1.40 / aq=2:0.90
Audio #1
ID : 2
Format : AC-3
Format/Info : Audio Coding 3
Codec ID : A_AC3
Duration : 1h 31mn
Bit rate mode : Constant
Bit rate : 384 Kbps
Channel(s) : 6 channels
Channel positions : Front: L C R, Surround: L R, LFE
Sampling rate : 48.0 KHz
Stream size : 252 MiB (4%)
Language : Russian
Audio #2
ID : 3
Format : AC-3
Format/Info : Audio Coding 3
Format profile : Dolby Digital
Codec ID : A_AC3
Duration : 1h 31mn
Bit rate mode : Constant
Bit rate : 192 Kbps
Channel(s) : 2 channels
Channel positions : L R
Sampling rate : 48.0 KHz
Stream size : 126 MiB (2%)
Language : Russian
Audio #3
ID : 4
Format : DTS
Format/Info : Digital Theater Systems
Codec ID : A_DTS
Duration : 1h 31mn
Bit rate mode : Constant
Bit rate : 1 510 Kbps
Channel(s) : 6 channels
Channel positions : Front: L C R, Surround: L R, LFE
Sampling rate : 48.0 KHz
Resolution : 16 bits
Stream size : 992 MiB (15%)

Скриншот c названием фильма

Скриншоты

Яндекс.Метрика
Рейтинг@Mail.ru