[ Сегодня на трекере фрилич! Идет свободное скачивание без начисления Download ]

Дилер / Pusher (Луис Прието / Luis Prieto) [2012 г., Триллер, криминал, BDRip-AVC] VO (Doctor_Joker) + Sub (Rus, Eng) + Original (Eng)

 

Создавать темы 17-Фев-2014 02:13

-Дилер / Pusher--«Never cross the line» Производство: Великобритания Embargo Films / Vertigo Films
Год выпуска: 2012 г.
Жанр: Триллер, криминал
Продолжительность: 01:29:24
Мировая премьера: 21 июня 2012
Перевод: Любительский (одноголосый, закадровый) [Doctor_Joker]
Оригинальный аудиопоток: английский
Режиссер: Луис Прието / Luis Prieto-В ролях: Ричард Койл, Бронсон Уэбб, Агнесс Дейн, Мем Ферда, Златко Бурич, Пол Кэй, Билл Томас, Нил Мэскелл, Дэйзи Льюис, Рэй Каллахэн, Бадриа Тимими, Адам Фостер, Ричард Шанкс, Шенд, Джоэнна Хоул, Трэйси Грин, Лейла Хоффман, Джоэнн Рэйнер, Роб Фрай, Пит Мидс, Мэтт Уильямс, Фреди 'Круга' Нвака, Ева Дагу, Джеймс Хэмилтон-Описание: У Франка, профессионального «пушера» — так называют мелких уличных торговцев наркотиками — крупные неприятности. Он должен 50 тыс. своим поставщикам-югославам, а вдобавок к этому во время продажи героина приезжим шведам налетела полиция, и весь товар, взятый в долг, пришлось выбросить в пруд. Друг Тонни, с кем они вместе работали, во всем признался полиции. Но товар выброшен, улик нет, и Франка выпустили. Теперь его долг поставщику Мило — 180 тыс. Франк любит проститутку Вик, красивую девушку, но безнадежную наркоманку. Кроме нее, пожалуй, ничего хорошего в жизни Франка и нет. И денег нет, а Мило требует вернуть долг. Не сможет — вышибала Мило Радован вырежет ему ножом коленные чашечки. Франк покупает пистолет. Поставщики тем временем узнают, что он дерзнул открыть собственное дело. Такое не прощается…-Качество видео: BDRip-AVC
Контейнер: MKV
Видео кодек: H.264
Аудио кодек: AC3
Видео: AVC (H 264), 2591 Кбит/с, 1024x426(2.40:1), 23.976 кадр/с, 0.248 bit / pix
Аудио: Rus: 48 kHz, AC3, 6 ch, 448 Кбит/с (VO) (Doctor_Joker)
Аудио 2: Eng: 48 kHz, AC3, 6 ch, 448 Кбит/с (Original)
Cубтитры: Rus, Eng

Media Info

Общее
Полное имя : W:\Diler.2012.BDRip.(AVC).mkv
Формат : Matroska
Размер файла : 2,18 Гбайт
Продолжительность : 1 ч. 29 м.
Общий поток : 3490 Кбит/сек
Дата кодирования : UTC 2014-02-10 07:09:59
Программа кодирования : mkvmerge v6.1.0 ('Old Devil') built on Mar 4 2013 09:10:42
Библиотека кодирования : libebml v1.3.0 + libmatroska v1.4.0
Видео
Идентификатор : 1
Формат : AVC
Формат/Информация : Advanced Video Codec
Профиль формата : [email protected]
Параметр CABAC формата : Да
Параметр ReFrames формата : 10 кадры
Идентификатор кодека : V_MPEG4/ISO/AVC
Продолжительность : 1 ч. 29 м.
Битрейт : 2591 Кбит/сек
Ширина : 1024 пикс.
Высота : 426 пикс.
Соотношение сторон : 2,40:1
Частота кадров : 23,976 кадр/сек
Цветовое пространство : YUV
Подвыборка цветности : 4:2:0
Битовая глубина : 8 бит
Тип развёртки : Прогрессивная
Бит/(Пиксели*Кадры) : 0.248
Размер потока : 1,58 Гбайт (72%)
Библиотека кодирования : x264 core 140 r2377+40 929f149 tMod [[email protected]:2:0 X86_64]
Настройки программы : cabac=1 / ref=10 / deblock=1:-3:-3 / analyse=0x3:0x133 / me=umh / subme=11 / psy=1 / fade_compensate=0.00 / psy_rd=1.00:0.20 / mixed_ref=1 / me_range=32 / chroma_me=1 / trellis=2 / 8x8dct=1 / cqm=0 / deadzone=21,11 / fast_pskip=0 / chroma_qp_offset=-3 / threads=12 / lookahead_threads=3 / sliced_threads=0 / nr=0 / decimate=0 / interlaced=0 / bluray_compat=0 / constrained_intra=0 / fgo=0 / bframes=12 / b_pyramid=2 / b_adapt=2 / b_bias=0 / direct=3 / weightb=1 / open_gop=0 / weightp=2 / keyint=240 / keyint_min=23 / scenecut=40 / intra_refresh=0 / rc=2pass / mbtree=0 / bitrate=2591 / ratetol=1.0 / qcomp=0.60 / qpmin=0:0:0 / qpmax=69:69:69 / qpstep=4 / cplxblur=20.0 / qblur=0.5 / ip_ratio=1.40 / pb_ratio=1.30 / aq=2:0.80 / aq-sensitivity=10.00 / aq-factor=1.00:1.00:1.00 / aq2=0 / aq3=0
Аудио #1
Идентификатор : 2
Формат : AC-3
Формат/Информация : Audio Coding 3
Расширение режима : CM (complete main)
Идентификатор кодека : A_AC3
Продолжительность : 1 ч. 29 м.
Вид битрейта : Постоянный
Битрейт : 448 Кбит/сек
Канал(ы) : 6 канала(ов)
Расположение каналов : Front: L C R, Side: L R, LFE
Частота : 48,0 КГц
Битовая глубина : 16 бит
Метод сжатия : С потерями
Размер потока : 286 Мбайт (13%)
Заголовок : Doctor_Joker
Язык : Russian
Аудио #2
Идентификатор : 3
Формат : AC-3
Формат/Информация : Audio Coding 3
Расширение режима : CM (complete main)
Идентификатор кодека : A_AC3
Продолжительность : 1 ч. 29 м.
Вид битрейта : Постоянный
Битрейт : 448 Кбит/сек
Канал(ы) : 6 канала(ов)
Расположение каналов : Front: L C R, Side: L R, LFE
Частота : 48,0 КГц
Битовая глубина : 16 бит
Метод сжатия : С потерями
Размер потока : 286 Мбайт (13%)
Язык : English
Текст #1
Идентификатор : 4
Формат : UTF-8
Идентификатор кодека : S_TEXT/UTF8
Идентификатор кодека/Информация : UTF-8 Plain Text
Язык : Russian
Текст #2
Идентификатор : 5
Формат : UTF-8
Идентификатор кодека : S_TEXT/UTF8
Идентификатор кодека/Информация : UTF-8 Plain Text
Язык : English
Меню
00:00:00.000 : :Chapter 01
00:09:33.990 : :Chapter 02
00:14:46.343 : :Chapter 03
00:27:40.367 : :Chapter 04
00:37:52.812 : :Chapter 05
00:47:34.351 : :Chapter 06
00:55:33.330 : :Chapter 07
01:01:00.281 : :Chapter 08
01:05:25.504 : :Chapter 09
01:12:06.739 : :Chapter 10
01:17:13.754 : :Chapter 11
01:26:01.281 : :Chapter 12

Скриншоты

Яндекс.Метрика
Рейтинг@Mail.ru