ХХII Зимние Олимпийские Игры Сочи 2014 / Хоккей на льду, Плей-офф, Четвертьфинал / Женщины / Швейцария - Россия (НТВ-Плюс HD СПОРТХИТ - Дмитрий Савин) [15.02.2014 г., HDTVRip, MKV, 720p, RU]

 

Создавать темы 16-Фев-2014 21:37

ХХII Зимние Олимпийские Игры Сочи 2014 /
Хоккей на льду, Плей-офф, Четвертьфинал / Женщины / Швейцария - Россия
Жаркие. Зимние. Твои.Официальный сайт "Сочи 2014" -Год выпуска: 15.02.2014 г.
Вид спорта: Хоккей на льду
Участники: Швейцария - Россия (Женщины)
Продолжительность: 01:46:42
Комментатор: Дмитрий Савин
Язык комментариев: русский
Автор рипа / записи: Striker-ТВ Канал: -Арена: Шайба (Сочи, Россия) 15 февраля 2014 года, суббота. 16:30 МСК-Качество видео: HDTVRip
Контейнер: MKV
Видео кодек: H.264
Аудио кодек: AC3
Видео: 4418 Кбит/сек; 1280*720 (16:9); в 50,000 кадра/сек; AVC; 0.096 Бит/(Пиксели*Кадры)
Аудио: 192 Кбит/сек; 48,0 КГц; 16 бит; 2 каналоа; АС-3
[url=http://pirat.ca/viewtopic.php?t=126668][/url]Хоккей на льду. Расписание и результаты. Скачать.

Составы команд

Швейцария: Флоренс Шеллинг (Софи Антаматтен), Джулия Марти — Ангела Фраучи — Штефани Марти — Алина Мюллер — Фёбе Штенц, Лара Штальдер — Лаура Бенц — Сандра Тальман — Сара Бенц — Джессика Луц, Сара Форстер — Николь Булло — Ливия Альтман — Роми Эггиман — Аня Штифель.
Главный тренер: Рене Каммерер.-Россия: Анна Пругова (Юлия Лескина), Светлана Ткачёва — Инна Дюбанок — Ия Гаврилова — Татьяна Бурина — Галина Скиба, Ангелина Гончаренко — Александра Капустина — Екатерина Смоленцева — Ольга Сосина — Екатерина Лебедева, Алёна Хомич — Анна Шибанова — Александра Вафина — Екатерина Смолина — Елена Дергачёва, Анна Щукина — Анна Шохина — Екатерина Пашкевич.
Главный тренер: Михаил Чеканов.-Главный судья: Джой Тоттмэн (Великобритания).

Media Info

Общее
Уникальный идентификатор : 78602726712570052858234500157411024266 (0x3B2255A25B69ED77C10AF42A0DE9DD8A)
Формат : Matroska
Версия формата : Version 2
Размер файла : 3,51 Гбайт
Продолжительность : 1 ч. 46 м.
Общий поток : 4703 Кбит/сек
Программа кодирования : Lavf52.64.2
Библиотека кодирования : Lavf52.64.2
Видео
Идентификатор : 1
Формат : AVC
Формат/Информация : Advanced Video Codec
Профиль формата : [email protected]
Параметр CABAC формата : Нет
Параметр ReFrames формата : 1 кадр
Идентификатор кодека : V_MPEG4/ISO/AVC
Продолжительность : 1 ч. 46 м.
Битрейт : 4418 Кбит/сек
Ширина : 1280 пикселей
Высота : 720 пикселей
Соотношение сторон : 16:9
Режим частоты кадров : Постоянный
Частота кадров : 50,000 кадров/сек
Цветовое пространство : YUV
Субдискретизация насыщенности : 4:2:0
Битовая глубина : 8 бит
Тип развёртки : Прогрессивная
Бит/(Пиксели*Кадры) : 0.096
Размер потока : 3,29 Гбайт (94%)
Default : Да
Forced : Нет
Аудио
Идентификатор : 2
Формат : AC-3
Формат/Информация : Audio Coding 3
Расширение режима : CM (complete main)
Параметр Endianness формата : Big
Идентификатор кодека : A_AC3
Продолжительность : 1 ч. 46 м.
Вид битрейта : Постоянный
Битрейт : 192 Кбит/сек
Каналы : 2 канала
Расположение каналов : Front: L R
Частота : 48,0 КГц
Битовая глубина : 16 бит
Метод сжатия : С потерями
Размер потока : 147 Мбайт (4%)
Default : Да
Forced : Нет

Скриншоты

Яндекс.Метрика
Рейтинг@Mail.ru