[ Сегодня на трекере фрилич! Идет свободное скачивание без начисления Download ]

ХХII Зимние Олимпийские Игры Сочи 2014 / Хоккей на льду, Предварительный раунд / Мужчины / США - Россия / Группа А (НТВ-Плюс HD СПОРТХИТ - Денис Казанский, Борис Майоров) [15.02.2014 г., HDTVRip, AVI, RU]

 

Создавать темы 16-Фев-2014 20:41

ХХII Зимние Олимпийские Игры Сочи 2014 /
Хоккей на льду, Предварительный раунд / Мужчины / США - Россия / Группа А
Жаркие. Зимние. Твои.Официальный сайт "Сочи 2014" -Год выпуска: 15.02.2014 г.
Вид спорта: Хоккей на льду
Участники: США - Россия (Мужчины)
Продолжительность: 03:02:29
Комментатор: Денис Казанский, Борис Майоров
Язык комментариев: русский
Автор рипа / записи: Striker-ТВ Канал: -Арена: Большой (Сочи, Россия) 15 февраля 2014 года, суббота. 16:30 МКС-Качество видео: HDTVRip
Контейнер: AVI
Видео кодек: XviD
Аудио кодек: MP3
Видео: 720x400 (1.80:1), 25 fps, XviD MPEG-4 ~1799 kbps avg, 0.25 bit/pixel
Аудио: 48 kHz, MPEG Layer 3, 2 ch, ~128.00 kbps avg

Составы команд

США: Джонатан Куик (Райан Миллер), Пол Мартин — Брукс Орпик — Зак Паризе — Райан Кэллахэн — Дэвид Бэйкс, Райан Сутер — Райан Макдона — Джо Павелски — Джеймс ван Римсдайк — Фил Кессел, Кэм Фаулер — Кевин Шаттенкирк— Райан Кеслер — Дастин Браун — Патрик Кейн, Джон Карлсон — Пол Штястны — Блейк Уилер — Макс Пачьоретти — Ти Джей Оши.
Главный тренер: Дэн Байлсма.-Россия: Сергей Бобровский (Семён Варламов), Вячеслав Войнов — Андрей Марков — Павел Дацюк — Александр Радулов — Илья Ковальчук, Алексей Емелин — Евгений Медведев — Александр Овечкин — Евгений Малкин — Александр Сёмин, Илья Никулин — Фёдор Тютин — Николай Кулёмин — Артём Анисимов — Владимир Тарасенко, Никита Никитин — Антон Белов — Александр Попов — Алексей Терещенко — Валерий Ничушкин.
Главный тренер: Зинэтула Билялетдинов.-Главный судья: Брэд Майер (США), Маркус Виннерборг (Швеция).

Media Info

Общее
Формат : AVI
Формат/Информация : Audio Video Interleave
Профиль формата : OpenDML
Размер файла : 2,47 Гбайт
Продолжительность : 3 ч. 2 м.
Общий поток : 1935 Кбит/сек
Программа кодирования : TMPGEnc Video Mastering Works 5 Version. 5.0.6.38
Библиотека кодирования : TMPGEnc Video Mastering Works 5 Version. 5.0.6.38
Видео
Идентификатор : 0
Формат : MPEG-4 Visual
Профиль формата : Advanced [email protected]
Параметр BVOP формата : 2
Параметр QPel формата : Нет
Параметр GMC формата : Без точки перехода
Параметр матрицы формата : Default (MPEG)
Идентификатор кодека : XVID
Идентификатор кодека/Подсказка : XviD
Продолжительность : 3 ч. 2 м.
Битрейт : 1800 Кбит/сек
Ширина : 720 пикселей
Высота : 400 пикселей
Соотношение сторон : 16:9
Частота кадров : 25,000 кадров/сек
Цветовое пространство : YUV
Субдискретизация насыщенности : 4:2:0
Битовая глубина : 8 бит
Тип развёртки : Прогрессивная
Метод сжатия : С потерями
Бит/(Пиксели*Кадры) : 0.250
Размер потока : 2,29 Гбайт (93%)
Библиотека кодирования : XviD 64
Аудио
Идентификатор : 1
Формат : MPEG Audio
Версия формата : Version 1
Профиль формата : Layer 3
Режим : Joint stereo
Расширение режима : MS Stereo
Идентификатор кодека : 55
Идентификатор кодека/Подсказка : MP3
Продолжительность : 3 ч. 2 м.
Вид битрейта : Постоянный
Битрейт : 128 Кбит/сек
Каналы : 2 канала
Частота : 48,0 КГц
Метод сжатия : С потерями
Размер потока : 167 Мбайт (7%)
Выравнивание : Соединение по промежуткам
Продолжительность промежутка : 250 мс. (6,25 видеокадров)
Время предзагрузки промежутка : 192 мс.

Скриншоты

Яндекс.Метрика
Рейтинг@Mail.ru