Легенда / Legend [American Theatrical Version] [с музыкой “Tangerine Dream”] (Ридли Скотт / Ridley Scott) [1985 г., фэнтези, приключения, HDTVRip] AVO (С.Визгунов, Ю.Живов, М.Иванов) + original (Eng)

 

Создавать темы 16-Фев-2014 13:49

Легенда / Legend [American Theatrical Version][театральная версия с музыкой “Tangerine Dream”] Год выпуска: 1985
Производство: США, Великобритания
Жанр: фэнтези, приключения
Продолжительность: 01:29:24
Перевод: Авторский (одноголосый, закадровый) С.Визгунов
Перевод 2: Авторский (одноголосый, закадровый) Ю.Живов
Перевод 3: Авторский (одноголосый, закадровый) М.Иванов
Оригинальный аудиопоток: английский
Субтитры: отсутствуют
Режиссер: Ридли Скотт / Ridley Scott
В ролях: Том Круз / Tom Cruise, Миа Сара / Mia Sara, Тим Карри / Tim Curry, Давид Беннент / David Bennent, Элис Плэйтен / Alice Playten, Билли Барти / Billy Barty, Корк Хабберт / Cork Hubbert, Питер О'Фэррелл / Peter O'Farrell, Киран Шах / Kiran Shah
Описание: Злые чары окутали волшебный лес фей и магов, диковинных существ и невиданных созданий. Здесь властвует зловещий Повелитель Тьмы, истребляющий неуловимых единорогов, чтобы повергнуть мир в хаос вечной ночи.
Его коварные слуги — гоблины всюду творят свои черные дела, вселяя ужас в невинных обитателей сказочной страны, и теперь только мужественный лесной странник Джек и его отважные друзья смогут избавить свой удивительный мир от жестокого властелина подземного царства мрака, где томится возлюбленная Джека, прекрасная принцесса Лили.
Дьявол пытается заполучить молодую невинную девушку. А парнишка пытается спасти Единорога, хранителя Света, от посягательств сил Зла.
Сэмпл , КиноПоиск
Качество видео: HDTVRip
Контейнер: AVI
Видео кодек: XviD
Аудио кодек: AC3
Видео: 720x304 (2.37:1), 23.976 fps, XviD build 50 ~2018 kbps avg, 0.38 bit/pixel
Аудио : 48 kHz, AC3 Dolby Digital, 2/0 (L,R) ch, ~192 kbps - С.Визгунов
Аудио #2: 48 kHz, AC3 Dolby Digital, 2/0 (L,R) ch, ~192 kbps - Ю.Живов
Аудио #3: 48 kHz, AC3 Dolby Digital, 2/0 (L,R) ch, ~192 kbps - М.Иванов
Аудио #4: 48 kHz, AC3 Dolby Digital, 2/0 (L,R) ch, ~192 kbps - Оригинал

Доп. информация

HDTVRip свой, исходник HDTVRip 720p Mirmekiy с тру.
За дорогу Визгунова спасибо Джосс. За дорогу Живова спасибо ERIK_TOB. Дороги были синхронизированы под данный релиз.
Это американская театральная версия с музыкой “Tangerine Dream”.

Media Info

General
Complete name : D:\Films 2\Legend [American Theatrical Version].1985 HDTVRip by DeASS.avi
Format : AVI
Format/Info : Audio Video Interleave
File size : 1.76 GiB
Duration : 1h 29mn
Overall bit rate : 2 812 Kbps
Movie name : Legend [American Theatrical Version].1985 HDTVRip by DeASS
Director : DeASS
Genre : Fantasy
Writing application : VirtualDubMod 1.5.10.3 (build 2550/release)
Original source form/Name : Movie
Copyright : 2014.02.07
Video
ID : 0
Format : MPEG-4 Visual
Format profile : Advanced [email protected]
Format settings, BVOP : 1
Format settings, QPel : No
Format settings, GMC : No warppoints
Format settings, Matrix : Default (MPEG)
Codec ID : XVID
Codec ID/Hint : XviD
Duration : 1h 29mn
Bit rate : 2 021 Kbps
Width : 720 pixels
Height : 304 pixels
Display aspect ratio : 2.35:1
Frame rate : 23.976 fps
Color space : YUV
Chroma subsampling : 4:2:0
Bit depth : 8 bits
Scan type : Progressive
Compression mode : Lossy
Bits/(Pixel*Frame) : 0.385
Stream size : 1.26 GiB (72%)
Writing library : XviD 1.2.1 (UTC 2008-12-04)
Audio #1
ID : 1
Format : AC-3
Format/Info : Audio Coding 3
Mode extension : CM (complete main)
Format settings, Endianness : Big
Codec ID : 2000
Duration : 1h 29mn
Bit rate mode : Constant
Bit rate : 192 Kbps
Channel(s) : 2 channels
Channel positions : Front: L R
Sampling rate : 48.0 KHz
Bit depth : 16 bits
Compression mode : Lossy
Stream size : 123 MiB (7%)
Alignment : Split accross interleaves
Interleave, duration : 42 ms (1.00 video frame)
Interleave, preload duration : 500 ms
Audio #2
ID : 2
Format : AC-3
Format/Info : Audio Coding 3
Mode extension : CM (complete main)
Format settings, Endianness : Big
Codec ID : 2000
Duration : 1h 29mn
Bit rate mode : Constant
Bit rate : 192 Kbps
Channel(s) : 2 channels
Channel positions : Front: L R
Sampling rate : 48.0 KHz
Bit depth : 16 bits
Compression mode : Lossy
Stream size : 123 MiB (7%)
Alignment : Split accross interleaves
Interleave, duration : 42 ms (1.00 video frame)
Interleave, preload duration : 500 ms
Audio #3
ID : 3
Format : AC-3
Format/Info : Audio Coding 3
Mode extension : CM (complete main)
Format settings, Endianness : Big
Codec ID : 2000
Duration : 1h 29mn
Bit rate mode : Constant
Bit rate : 192 Kbps
Channel(s) : 2 channels
Channel positions : Front: L R
Sampling rate : 48.0 KHz
Bit depth : 16 bits
Compression mode : Lossy
Stream size : 123 MiB (7%)
Alignment : Split accross interleaves
Interleave, duration : 42 ms (1.00 video frame)
Interleave, preload duration : 500 ms
Audio #4
ID : 4
Format : AC-3
Format/Info : Audio Coding 3
Mode extension : CM (complete main)
Format settings, Endianness : Big
Codec ID : 2000
Duration : 1h 29mn
Bit rate mode : Constant
Bit rate : 192 Kbps
Channel(s) : 2 channels
Channel positions : Front: L R
Sampling rate : 48.0 KHz
Bit depth : 16 bits
Compression mode : Lossy
Stream size : 123 MiB (7%)
Alignment : Split accross interleaves
Interleave, duration : 42 ms (1.00 video frame)
Interleave, preload duration : 500 ms

Скриншоты

Создавать темы 20-Дек-2015 16:47 (спустя 1 год 10 месяцев)

Помогите Скачать встаньте кто нибудь на раздачу! Пожалуйста)
Яндекс.Метрика
Рейтинг@Mail.ru