Пираты ХХ века (Борис Дуров) [1979 г., боевик, триллер, приключения, DVDRip]

 

Создавать темы 16-Фев-2014 02:59

-Пираты ХХ века-- Производство: СССР
Режиссер: Борис Дуров
Жанр: боевик, триллер, приключения
Год выпуска: 1979 г.
Продолжительность: 01:19:53
Российская премьера: 14 июля 1980
Дата выхода DVD: 29 февраля 2008
В ролях: Николай Ерёменко младший, Талгат Нигматулин, Пётр Вельяминов, Рейно Арен (озвучание - Владимир Сошальский), Дилором Камбарова, Наталья Хорохорина, Майя Эглите, Тадеуш Касьянов (озвучание - Алексей Сафонов), Павел Ремезов, Виктор Жиганов, Виктор Гордеев, Георгий Мартиросян, Леонид Трутнев, Александр Беспалый, Владимир Смирнов, Нартай Бегалин, Геннадий Четвериков, Игорь Класс, Владимир Епископосян, Лагтемир Дзитиев, Биболт Кумалагов, Ирада Алиева, Игорь Кашинцев, Юрий Комаров, Олег Федулов, Фархад Аминов, Лола Бадалова, Николай Дёмин, Владимир Жариков, Яхьё Файзуллаев, Шоира Турсунбаева, Джигангир Шахмурадов, Сергей Кучков, Мамура Рахимова, Владимир Карпичев, Рудольф Панков (закадровый текст)-Описание: Советский сухогруз "Нежин", забрав в одном из портов Юго-Восточной Азии большой груз опиума для нужд советской фармакологической промышленности, отплыл домой, во Владивосток. На обратном пути моряки "Нежина" в открытом море подобрали Салеха - матроса с перевозившего хлопок иностранного судна. Салех рассказал, что на его судне неожиданно вспыхнул пожар. Когда пламя вырвалось из трюмов на палубу, команду охватила паника. Салех оказался среди тех, кому не хватило места в спасательных шлюпках, и он, прыгнув в воду, даже не надеялся, что сможет выжить. Вскоре после спасения Салеха "Нежин" встречает дрейфующий по тихоокеанским волнам теплоход "Mercury", на котором не заметно никаких признаков присутствия людей...-Сэмпл КиноПоиск
Качество видео: DVDRip
Контейнер: AVI
Видео кодек: XviD
Аудио кодек: AC3
Видео: 704x320 (2.20:1), 25 fps, XviD build 73, 2180 kbps avg, 0.39 bit/pixel
Аудио: 48 kHz, AC3 Dolby Digital, 3/2 (L,C,R,l,r) + LFE ch, 448 kbps
Cубтитры: отсутствуют

Доп. информация

Абсолютный лидер советского кинопроката по кассовым сборам - в 1980 году фильм посмотрели около 90 миллионов человек (по некоторым другим оценкам - около 103 миллионов). При этом фильм не получил практически никаких наград.
Сценарий: Станислав Говорухин (при участии Бориса Дурова)
Оператор: Александр Рыбин
Художник: Борис Комяков
Композитор: Евгений Геворгян
Награды: почётный диплом за своеобразное решение фильма приключенческого жанра на ВКФ в Душанбе (1980)
Ограничения на просмотр: детям до 12 лет просмотр фильма разрешен в сопровождении родителей

Media Info

General
Complete name : D:\Piraty XX veka.avi
Format : AVI
Format/Info : Audio Video Interleave
File size : 1.47 GiB
Duration : 1h 19mn
Overall bit rate : 2 638 Kbps
Writing application : VirtualDubMod 1.5.10.3 | www.virtualdub-fr.org || (build 2550/release)
Writing library : VirtualDubMod build 2550/release
Video
ID : 0
Format : MPEG-4 Visual
Format profile : Advanced [email protected]
Format settings, BVOP : 1
Format settings, QPel : No
Format settings, GMC : No warppoints
Format settings, Matrix : Custom
Codec ID : DX50
Codec ID/Hint : DivX 5
Duration : 1h 19mn
Bit rate : 2 180 Kbps
Width : 704 pixels
Height : 320 pixels
Display aspect ratio : 2.2:1
Frame rate : 25.000 fps
Color space : YUV
Chroma subsampling : 4:2:0
Bit depth : 8 bits
Scan type : Progressive
Compression mode : Lossy
Bits/(Pixel*Frame) : 0.387
Stream size : 1.22 GiB (83%)
Writing library : XviD 73
Audio
ID : 1
Format : AC-3
Format/Info : Audio Coding 3
Mode extension : CM (complete main)
Format settings, Endianness : Big
Codec ID : 2000
Duration : 1h 19mn
Bit rate mode : Constant
Bit rate : 448 Kbps
Channel count : 6 channels
Channel positions : Front: L C R, Side: L R, LFE
Sampling rate : 48.0 KHz
Bit depth : 16 bits
Compression mode : Lossy
Stream size : 256 MiB (17%)
Alignment : Split accross interleaves
Interleave, duration : 40 ms (1.00 video frame)
Interleave, preload duration : 500 ms

Скриншот c названием фильма

Скриншоты

Яндекс.Метрика
Рейтинг@Mail.ru