ХХII Зимние Олимпийские Игры Сочи 2014 / Дневник Олимпиады (9 выпусков) (Россия HD - Дмитрий Губернев и Анастасия Чернобровина) [2014 г., Олимпийские игры, HDTVRip, AVI, RU] [Обновляемая]

 

Создавать темы 16-Фев-2014 02:34

ХХII Зимние Олимпийские Игры Сочи 2014 / Дневник ОлимпиадыЖаркие. Зимние. Твои.Официальный сайт "Сочи 2014" -Год выпуска: 2014 г.
Вид спорта: Олимпийские игры
Участники: Люди
Продолжительность: 9 выпусков по ~00:26:00
Комментарий: Профессиональный (одноголосый, закадровый)
Ведущие: Дмитрий Губернев и Анастасия Чернобровина
Язык комментариев: русский
Автор рипа / записи: Багга-ТВ Канал: -Качество видео: HDTVRip
Контейнер: AVI
Видео кодек: XviD
Аудио кодек: MP3
Видео: 704x400 (1.76:1), 25 fps, XviD build 50 ~1898 kbps avg, 0.27 bit/pixel
Аудио: 48 kHz, MPEG Layer 3, 2 ch, ~124.59 kbps avg

Media Info

Общее
Формат : AVI
Формат/Информация : Audio Video Interleave
Размер файла : 376 Мбайт
Продолжительность : 25 м.
Режим общего битрейта : Переменный
Общий поток : 2036 Кбит/сек
Программа кодирования : VirtualDubMod 1.5.10.3 | www.virtualdub-fr.org || (build 2550/release)
Библиотека кодирования : VirtualDubMod build 2550/release
Видео
Идентификатор : 0
Формат : MPEG-4 Visual
Профиль формата : Advanced [email protected]
Параметр BVOP формата : 1
Параметр QPel формата : Нет
Параметр GMC формата : Без точки перехода
Параметр матрицы формата : Default (MPEG)
Идентификатор кодека : DX50
Идентификатор кодека/Подсказка : DivX 5
Продолжительность : 25 м.
Битрейт : 1899 Кбит/сек
Ширина : 704 пикселя
Высота : 400 пикселей
Соотношение сторон : 16:9
Частота кадров : 25,000 кадров/сек
Цветовое пространство : YUV
Субдискретизация насыщенности : 4:2:0
Битовая глубина : 8 бит
Тип развёртки : Прогрессивная
Метод сжатия : С потерями
Бит/(Пиксели*Кадры) : 0.270
Размер потока : 350 Мбайт (93%)
Библиотека кодирования : XviD 1.2.1 (UTC 2008-12-04)
Аудио
Идентификатор : 1
Формат : MPEG Audio
Версия формата : Version 1
Профиль формата : Layer 3
Идентификатор кодека : 55
Идентификатор кодека/Подсказка : MP3
Продолжительность : 25 м.
Вид битрейта : Переменный
Битрейт : 128 Кбит/сек
Каналы : 2 канала
Частота : 48,0 КГц
Метод сжатия : С потерями
Размер потока : 23,0 Мбайт (6%)
Выравнивание : Соединение по промежуткам
Продолжительность промежутка : 24 мс. (0,60 видеокадр)
Время предзагрузки промежутка : 514 мс.
Библиотека кодирования : L3.99r
Настройки программы : -m s -V 4 -q 2 -lowpass 17 --abr 128

Скриншоты

Яндекс.Метрика
Рейтинг@Mail.ru