[ Сегодня на трекере фрилич! Идет свободное скачивание без начисления Download ]

Приключения Тома Сойера и Гекльберри Финна (Станислав Говорухин) [1981 г., комедия, приключения, семейный, детский, DVDRip]

 

Создавать темы 15-Фев-2014 18:27

Приключения Тома Сойера и Гекльберри Финна
Год выпуска: 1981
Жанр: комедия, приключения, семейный, детский
Продолжительность: 01:12:31+01:06:13+01:03:34
Режиссер: Станислав Говорухин
В ролях: Фёдор Стуков — Том Сойер,Владислав Галкин (в титрах указан как Владик Сухачев) — Гекльберри Финн (кинодебют),Мария Миронова — Бэкки Тетчер (кинодебют),Ролан Быков — Мэф Поттер,Екатерина Васильева — тётя Полли,Валентина Шендрикова — вдова Дуглас,Талгат Нигматулин — индеец Джо (озвучивание Николай Караченцов),Всеволод Абдулов — учитель Уолтерс,Владимир Конкин — доктор Робинсон,Борис Зайденберг — судья Тетчер,Фёдор Одиноков — фермер,Виктор Павлов — шериф,Игорь Сорин (в титрах указан как Игорь Райберг) — Джо Гарпер,Валерий Рубинчик — адвокат,Владимир Жариков,Лев Перфилов — пастор,Карина Моритц — Мэри, сестра Тома Сойера (озвучивала Наталья Рычагова),Бехайлу Менгеша — негр Джим
Описание: Экранизация самого знаменитого романа американского писателя Марка Твена «Приключения Тома Сойера». Маленькие, но отважные герои разыскивают клад, становятся «пиратами», вступают в опасную схватку с индейцем Джо. Но, самое главное в этой истории — то, что они учатся быть верными друзьями и добрыми людьми.

Рецензии

Ещё одна прекрасная экранизация
Всё-таки Говорухин в Советское время снимал замечательные, качественные экранизации. «Десять негритят», «Место встречи изменить нельзя», «В поисках капитана Гранта» — всё это одни из любимейших фильмов детства и классика отечественного кинематографа. Не исключение и «Приключения Тома Сойера и Гекльберри Финна». Фильм создан в лучших традициях нашего кино и является прекрасной экранизацией замечательной книги. Так что, пересмотрев недавно этот трехсерийный фильм, я остался в полном восторге.
Начать пожалуй нужно с того, что сама книга Марка Твена является одним из самых лучших детских произведений и данный фильм примечателен тем, что очень удачно удалось перенести атмосферу детского бунтарства, беззаботности и захватывающий приключенческий дух книги. Немало этому поспособствовала замечательная (впрочем, как всегда) игра актеров. Васильева, Нигматуллин, Конкин, Павлов, Быков, да все справились просто на отлично. Талгат вообще, сыграл просто демоническую личность, великолепный злодей, хладнокровный, жестокий и беспощадный, неуловимый. Кстати, очень интересно, если будете смотреть обратите внимание на голос индейца Джо.
Особое внимание заслуживают дети, исполняющие главные роли. От взрослых они не отстали и в свою очередь, сыграли также замечательно. Великолепен был молодой Галкин, я постоянно ждал появления его героя, и каждый раз просто упивался его игрой. Такого от Галкина-взрослого я не видел. Наблюдать за Машей Мироновой и Федей Стуковым тоже было в высшей степени интересно. Что примечательно, золотой ребенок и главная звезда детских ролей Стуков, когда вырос, то совершенно затерялся и сейчас о нем не вспоминает никто, а если и вспоминает, то только как мальчика, который сыграл девочку у Михалкова. Незаметные же в то время Галкин и Миронова, когда выросли, то сделали весьма неплохую карьеру и сейчас у всех на слуху. Интересно почему? Слава в раннем детстве сыграла со Стуковым злую шутку или у него не оказалось родителей из кинематографического круга? Вопрос.
Ещё раз повторюсь, атмосфера замечательная. Почему-то всегда, когда смотрел советские фильмы, будь то «Шерлоки Холмсы» или «Ищите женщину», то безоговорочно верил, что вот такие они французы или англичане, или кого там ещё нам показывали. Вот и здесь, все эти домики, чудесные трели банджо, «сэр», «мэм», «масса», у меня и сомнений никогда не возникало, что Америка тогда могла быть другой. Спасибо Говорухину, по-моему, очень атмосферно. Позже он ещё проявит свои лучшие качества в создании далёких миров, показав детям всего Союза полмира в своей эпопее «В поисках капитана Гранта». Вообще в восьмидесятые Говорухин, по-моему, находился в состоянии своего творческого расцвета, в это время он выдал подряд несколько отличнейших экранизаций, попали в это время и «Приключения…». И хоть они не столь любимые и популярные, как другие его нетленки, по качеству эта картина прочим его творениям ничем не уступает.

Интересные факты

Конкурс на исполнение заглавной роли, объявленный «Пионерской правдой», выиграл юный Игорь Райберг (Сорин - участник группы 'Иванушки International). Однако по настойчивой просьбе Никиты Михалкова режиссёр фильма Станислав Говорухин был вынужден взять на роль Тома Сойера другого актёра — Федю Стукова. Райбергу в порядке «утешения» была предложена крошечная роль Джо Гарпера.
В школе, которую посещает Том, на стене класса (над головой мистера Доббинса) написано «Knowledge is Power» (культовый в СССР лозунг «Знание — сила», приписываемый Фрэнсису Бэкону или Томасу Гоббсу).
Места съемок: Одесса, Сухуми, кавказские деревни, село Львово под Херсоном. Эпизод в пещере снимали в Новоафонской пещере в Абхазии.

Media Info

Формат : AVI
Формат/Информация : Audio Video Interleave
Размер файла : 699 Мбайт
Продолжительность : 1 ч. 12 м.
Общий поток : 1347 Кбит/сек
Программа кодирования : VirtualDubMod 1.5.10.1 (build 2366/release)
Библиотека кодирования : VirtualDubMod build 2366/release
Видео
Идентификатор : 0
Формат : MPEG-4 Visual
Параметр BVOP формата : 1
Параметр QPel формата : Нет
Параметр GMC формата : Без точки перехода
Параметр матрицы формата : Default (H.263)
Режим смешивания : Сжатый битовый поток
Идентификатор кодека : DX50
Идентификатор кодека/Подсказка : DivX 5
Продолжительность : 1 ч. 12 м.
Битрейт : 1209 Кбит/сек
Ширина : 576 пикс.
Высота : 432 пикс.
Соотношение сторон : 4:3
Частота кадров : 25,000 кадр/сек
Цветовое пространство : YUV
Подвыборка цветности : 4:2:0
Битовая глубина : 8 бит
Тип развёртки : Прогрессивная
Метод сжатия : С потерями
Бит/(Пиксели*Кадры) : 0.194
Размер потока : 627 Мбайт (90%)
Библиотека кодирования : DivX 5.0.5 (UTC 2003-04-24)
Аудио
Идентификатор : 1
Формат : MPEG Audio
Версия формата : Version 1
Профиль формата : Layer 3
Режим : Joint stereo
Расширение режима : MS Stereo
Идентификатор кодека : 55
Идентификатор кодека/Подсказка : MP3
Продолжительность : 1 ч. 12 м.
Вид битрейта : Постоянный
Битрейт : 128 Кбит/сек
Каналы : 2 канала
Частота : 48,0 КГц
Метод сжатия : С потерями
Размер потока : 66,4 Мбайт (10%)
Выравнивание : Разделение по промежуткам
Продолжительность промежутка : 40 мс. (1,00 видеокадр)
Время предзагрузки промежутка : 500 ms
Общее
Полное имя : I:\ШАРА\ВИДЕО\ДЕТСКИЕ И МУЛЬТФИЛЬМЫ\ФИЛЬМЫ\Приключения Тома Сойера и Геккельбери Фина\Priklucheniya_Toma_Sojera_2.avi
Формат : AVI
Формат/Информация : Audio Video Interleave
Размер файла : 697 Мбайт
Продолжительность : 1 ч. 6 м.
Общий поток : 1472 Кбит/сек
Программа кодирования : VirtualDubMod 1.5.10.1 (build 2366/release)
Библиотека кодирования : VirtualDubMod build 2366/release
Видео
Идентификатор : 0
Формат : MPEG-4 Visual
Параметр BVOP формата : 1
Параметр QPel формата : Нет
Параметр GMC формата : Без точки перехода
Параметр матрицы формата : Default (H.263)
Режим смешивания : Сжатый битовый поток
Идентификатор кодека : DX50
Идентификатор кодека/Подсказка : DivX 5
Продолжительность : 1 ч. 6 м.
Битрейт : 1334 Кбит/сек
Ширина : 576 пикс.
Высота : 432 пикс.
Соотношение сторон : 4:3
Частота кадров : 25,000 кадр/сек
Цветовое пространство : YUV
Подвыборка цветности : 4:2:0
Битовая глубина : 8 бит
Тип развёртки : Прогрессивная
Метод сжатия : С потерями
Бит/(Пиксели*Кадры) : 0.214
Размер потока : 632 Мбайт (91%)
Библиотека кодирования : DivX 5.0.5 (UTC 2003-04-24)
Аудио
Идентификатор : 1
Формат : MPEG Audio
Версия формата : Version 1
Профиль формата : Layer 3
Режим : Joint stereo
Расширение режима : MS Stereo
Идентификатор кодека : 55
Идентификатор кодека/Подсказка : MP3
Продолжительность : 1 ч. 6 м.
Вид битрейта : Постоянный
Битрейт : 128 Кбит/сек
Каналы : 2 канала
Частота : 48,0 КГц
Метод сжатия : С потерями
Размер потока : 60,7 Мбайт (9%)
Выравнивание : Разделение по промежуткам
Продолжительность промежутка : 40 мс. (1,00 видеокадр)
Время предзагрузки промежутка : 500 ms
Общее
Полное имя : I:\ШАРА\ВИДЕО\ДЕТСКИЕ И МУЛЬТФИЛЬМЫ\ФИЛЬМЫ\Приключения Тома Сойера и Геккельбери Фина\Priklucheniya_Toma_Sojera_3.avi
Формат : AVI
Формат/Информация : Audio Video Interleave
Размер файла : 695 Мбайт
Продолжительность : 1 ч. 3 м.
Общий поток : 1526 Кбит/сек
Программа кодирования : VirtualDubMod 1.5.10.1 (build 2366/release)
Библиотека кодирования : VirtualDubMod build 2366/release
Видео
Идентификатор : 0
Формат : MPEG-4 Visual
Параметр BVOP формата : 1
Параметр QPel формата : Нет
Параметр GMC формата : Без точки перехода
Параметр матрицы формата : Default (H.263)
Режим смешивания : Сжатый битовый поток
Идентификатор кодека : DX50
Идентификатор кодека/Подсказка : DivX 5
Продолжительность : 1 ч. 3 м.
Битрейт : 1388 Кбит/сек
Ширина : 576 пикс.
Высота : 432 пикс.
Соотношение сторон : 4:3
Частота кадров : 25,000 кадр/сек
Цветовое пространство : YUV
Подвыборка цветности : 4:2:0
Битовая глубина : 8 бит
Тип развёртки : Прогрессивная
Метод сжатия : С потерями
Бит/(Пиксели*Кадры) : 0.223
Размер потока : 632 Мбайт (91%)
Библиотека кодирования : DivX 5.0.5 (UTC 2003-04-24)
Аудио
Идентификатор : 1
Формат : MPEG Audio
Версия формата : Version 1
Профиль формата : Layer 3
Режим : Joint stereo
Расширение режима : MS Stereo
Идентификатор кодека : 55
Идентификатор кодека/Подсказка : MP3
Продолжительность : 1 ч. 3 м.
Вид битрейта : Постоянный
Битрейт : 128 Кбит/сек
Каналы : 2 канала
Частота : 48,0 КГц
Метод сжатия : С потерями
Размер потока : 58,3 Мбайт (8%)
Выравнивание : Разделение по промежуткам
Продолжительность промежутка : 40 мс. (1,00 видеокадр)
Время предзагрузки промежутка : 500 ms

Инфо

Источник/Качество: DVDRip
Формат: AVI
Видео кодек: DivX
Аудио кодек: MP3
Видео 1 серия: 576x432 (1.33:1), 25 fps, DivX Codec 5.05 ~1208 kbps avg, 0.19 bit/pixel
Аудио 1 серия: 48 kHz, MPEG Layer 3, 2 ch, ~128.00 kbps avg
Видео 2 серия: 576x432 (1.33:1), 25 fps, DivX Codec 5.05 ~1333 kbps avg, 0.21 bit/pixel
Аудио 2 серия: 48 kHz, MPEG Layer 3, 2 ch, ~128.00 kbps avg
Видео 3 серия: 576x432 (1.33:1), 25 fps, DivX Codec 5.05 ~1387 kbps avg, 0.22 bit/pixel
Аудио 3 серия: 48 kHz, MPEG Layer 3, 2 ch, ~128.00 kbps avg

Скриншоты

Яндекс.Метрика
Рейтинг@Mail.ru